img image001 image001 image001 image001 image001 image001 image001 image001 image001 image001 image001 image001 image001 image001 image001

Planets Sun Sun Sun
Статистика раздачи
Автор: Nickolas3434 | Размер: 8.02 ГБ | Добавлен: 29 мар 2016
Раздают: 79    Качают: 24
Скачать торрент
Скачать торрент
Описание торрента

СообщениеДобавлено: 29 мар 2016 

Информация о фильме
Название: Три Фу Том
Оригинальное название: Tree Fu Tom
Год выхода: 2012
Выпущено: Великобритания, CBeebies In House Production, Fremantle Media Enterprises, Blue-Zoo Productions
Жанр: Мультсериал, детский, семейный, приключения
Продолжительность: 26 X ~ 00:21:30
Перевод: Профессиональный дублированный (Карусель)
Режиссеры: Адам Шоу, Китти Тейлор, Дермот Кентербери
Роли озвучивали: Тим Уайтнэлл, Софи Алдред, Саманта Дэкин, Дэвид Теннант, Люсьен Додж, Шэрон Д. Кларк, Адам Хендерсон
Роли дублировали: Виктор Бакин, Иван Непомнящий, Елена Шульман, Анастасия Лапина, Антон Савенков, ...
О фильме:
Восьмилетний Том сделал ошеломляющее открытие! Оказывается, внутри ствола одного из деревьев, что растёт недалеко от его дома в лесу, разместился целый мир. Том получает возможность оказаться в этом магическом мире и познакомиться с его жителями — диковинными маленькими существами из леса. Этот волшебный мир превращает простого мальчишку в супергероя! Маленькие зрители непременно подружатся с Томом и вместе с ним отправятся в увлекательное приключение в заколдованное царство, населённое удивительными жителями.
Сезон 1 (5 марта - 28 декабря 2012)
01. Победу лучшей ягоде! / May The Best Berry Win
02. Поиски Сквизла / Squizzle Quest
03. Зигзу ноль / Zigzoo the Zero
04. Пока, новички! / So Long Greenhorns!
05. Прятки со спасением / Hide and Squeak
06. Всё, что захотите / Wishful Thinking
07. Робот Зигзу / Zigzoo's Robot
08. С такими друзьями! / With Friends Like These
09. Стоит дружить с теми, кто жужжит / Buzzworthy
10. Окрылённость / Winging It
11. Кристальная катастрофа / Crystal Catastrophe
12. Грязные игры / Fungus Among Us
13. Большие скачки на ранчо / The Big Ranch Rodeo
14. Один за всех / One for All!
15. Том и трюфели / Treefle Tom
16. Потрясающее приключение / The Great Journey
17. Не так быстро! / Not So Fast
18. Парящие жуки / Hovering Humblebugs
19. Охота за сокровищами / Treasure Hunt
20. Ошибка Тома / Tom's Big Mess
21. День живицы / Sappy day
22. Прожорливая напасть / Grubble Trouble
23. Спасение Рикети / Rickety Rescue
24. На вкус и цвет / Weather Brother
25. Том лилипут / Tiny Tom
26. Потерянный энергокамень / The Lost Stone



Доп. информация:
Семпл


Файл
Формат: MP4
Качество: WEBRip 720p
Видео: MPEG4-AVC, [email protected], 1280x720 (16:9), ~ 1 891 Kbps, 25.000 fps
Звук: 44.1 KHz, AAC-LC 2.0, 192 Kbps
Субтитры: нет
03. Зигзу ноль. HD-merci-.mp4
Format : MPEG-4
Format profile : Base Media / Version 2
Codec ID : mp42 (isom/mp42)
File size : 321 MiB
Duration : 21mn 30s
Overall bit rate mode : Variable
Overall bit rate : 2 085 Kbps
Encoded date : UTC 2015-12-04 14:56:47
Tagged date : UTC 2015-12-04 14:56:47
gsst : 0
gstd : 1290053
Video
ID : 1
Format : AVC
Format/Info : Advanced Video Codec
Format profile : High@L3.1
Format settings, CABAC : Yes
Format settings, ReFrames : 1 frame
Codec ID : avc1
Codec ID/Info : Advanced Video Coding
Duration : 21mn 30s
Bit rate : 1 891 Kbps
Maximum bit rate : 7 255 Kbps
Width : 1 280 pixels
Height : 720 pixels
Display aspect ratio : 16:9
Frame rate mode : Constant
Frame rate : 25.000 fps
Color space : YUV
Chroma subsampling : 4:2:0
Bit depth : 8 bits
Scan type : Progressive
Bits/(Pixel*Frame) : 0.082
Stream size : 291 MiB (91%)
Tagged date : UTC 2015-12-04 14:57:14
Audio
ID : 2
Format : AAC
Format/Info : Advanced Audio Codec
Format profile : LC
Codec ID : 40
Duration : 21mn 30s
Bit rate mode : Variable
Bit rate : 192 Kbps
Maximum bit rate : 202 Kbps
Channel(s) : 2 channels
Channel positions : Front: L R
Sampling rate : 44.1 KHz
Frame rate : 43.066 fps (1024 spf)
Compression mode : Lossy
Stream size : 29.5 MiB (9%)
Title : IsoMedia File Produced by Google, 5-11-2011
Language : English
Encoded date : UTC 2015-12-04 14:57:03
Tagged date : UTC 2015-12-04 14:57:14


Релиз от: -merci-



   Похожие торренты   Торрент   Размер 
В этой теме нет новых непрочитанных сообщений. Три Фу Том / Tree Fu Tom [s01] (2012) WEBRip 1080p от -merci-

25 | 9

9.64 ГБ

В этой теме нет новых непрочитанных сообщений. Медведи-соседи 2 / Boonie Bears or Bust [S02] (2012) WEBRip 720p от -merci- | D

144 | 35

16.15 ГБ

В этой теме нет новых непрочитанных сообщений. Бумажки [01-27] (2015) WEBRip 720p от -merci-

271 | 11

1.77 ГБ

В этой теме нет новых непрочитанных сообщений. Бумажки [01-30] (2015) WEBRip 720p от -merci-

101 | 8

1.98 ГБ

В этой теме нет новых непрочитанных сообщений. Малышарики [01-15 из ?] (2015) WEBRip 720p от -merci-

420 | 10

639.33 МБ

В этой теме нет новых непрочитанных сообщений. Бумажки [01-31] (2015) WEBRip 720p от -merci-

68 | 25

2.05 ГБ

В этой теме нет новых непрочитанных сообщений. Бумажки [01-28] (2015) WEBRip 720p от -merci-

122 | 4

1.84 ГБ




Вы не можете начинать темы
Вы не можете отвечать на сообщения
Вы не можете редактировать свои сообщения
Вы не можете удалять свои сообщения
Вы не можете добавлять вложения

Перейти:  
Для Мосгорсуда, Роскомнадзора и рекламодателей: mosgorsud-torrent[собачка]yandex.ru
 Вход
ppkBB3cker v.2 © 2008-2014 @ PPK
[ Time : 0.032s | 16 Queries | GZIP : Off ]

Торрент трекер RUTOR.IN, Не можете зайти на rutor.org? Какой новый адрес рутор? Какое зеркало рутор? Не работает rutor.org и зеркала? Тогда наш торрент специально для вас. Rutor.in неофициальное зеркало rutor. В случае если у Вас заблокирован rutor или вдруг Вы не можете на него зайти, то Вы без труда сможете скачать бесплатно и без рекламы последние новинки кино, игр, сериалов и прочего у нас, на Rutor.in. Не нужно использовать прокси, чтобы зайти на рутор, достаточно воспользоваться нашим ресурсом. Все новые фильмы, игры, сериалы, книги и музыка за 2013 и 2014 годы через торрент бесплатно. Скачивайте фильмы в хорошем качестве, игры для пк, xbox, playstation без регистрации. У нас вы найдете новые Зарубежные сериалы и Русские сериалы 2013, 2014, 2015 годов. Оставайтесь с нами, качайте любимые фильмы, игры, сериалы, книги и музыку.