img image001 image001 image001 image001 image001 image001 image001 image001 image001 image001 image001 image001 image001 image001 image001

Planets Sun Sun Sun
Статистика раздачи
Автор: Nickolas3434 | Размер: 2.14 ГБ | Добавлен: 29 мар 2016
Раздают: 737    Качают: 46
Скачать торрент
Скачать торрент
Описание торрента

СообщениеДобавлено: 29 мар 2016 

Информация о фильме
Название: Крякнутые каникулы
Оригинальное название: Крякнутые каникулы
Год выхода: 2015
Жанр: Мультфильм, комедия, приключения, семейный
Режиссер: Виктор Лакисов
В ролях: Никита Пресняков, Владимир Пресняков мл., Эвелина Блёданс, Полина Максимова, Александр Головин, Всеволод Кузнецов, Борис Токарев, Станислав Стрелков, Елена Шульман, Михаил Лукашов
О фильме: Перелётные кряквы из России, решившие провести свой отдых на Гавайях, сбиваются с пути и приземляются на китайский остров, на котором живут утки-мандаринки. Между двумя стаями возникает много смешных и курьёзных ситуаций. Пока отцы дерутся и спорят, Ник, сын императора мандаринок и Ариша, дочь командира русских крякв, знакомятся и становятся друзьями. Дети должны объединить мандаринок и крякв и победить Ведьму Марго, которая хочет погубить солнце.

Выпущено: Россия / Animation Studio RIM, Asymmetric VFX
Продолжительность: 01:21:43
Озвучивание: Оригинальное
Файл
Качество: WEB-DLRip (AVC)
Видео: MPEG-4 AVC, 3295 Кбит/с, 1024x576
Аудио: AC3, 2 ch, 448 Кбит/с
General
Unique ID : 174076634643887262529729025426239280661 (0x82F5F0B953FC43AEBA7BE4D0079C5615)
Complete name : C:Krya.kanikyly.2016.WEB-DLRip.AVC.ExKinoRay.mkv
Format : Matroska
Format version : Version 4 / Version 2
File size : 2.14 GiB
Duration : 1h 21mn
Overall bit rate : 3 744 Kbps
Movie name : Крякнутые каникулы 2016 from ExKinoRay
Encoded date : UTC 2016-03-29 03:27:13
Writing application : mkvmerge v6.6.0 ('The Edge Of The In Between') built on Dec 1 2013 17:55:00
Writing library : libebml v1.3.0 + libmatroska v1.4.1
Video
ID : 1
Format : AVC
Format/Info : Advanced Video Codec
Format profile : High@L4.1
Format settings, CABAC : Yes
Format settings, ReFrames : 10 frames
Codec ID : V_MPEG4/ISO/AVC
Duration : 1h 21mn
Bit rate : 3 295 Kbps
Width : 1 024 pixels
Height : 576 pixels
Display aspect ratio : 16:9
Frame rate mode : Constant
Frame rate : 24.000 fps
Color space : YUV
Chroma subsampling : 4:2:0
Bit depth : 8 bits
Scan type : Progressive
Bits/(Pixel*Frame) : 0.233
Stream size : 1.84 GiB (86%)
Title : Enigma
Writing library : x264 core 142 r2431 ac76440
Encoding settings : cabac=1 / ref=10 / deblock=1:-2:-2 / analyse=0x3:0x113 / me=umh / subme=10 / psy=1 / psy_rd=1.05:0.15 / mixed_ref=1 / me_range=32 / chroma_me=1 / trellis=2 / 8x8dct=1 / cqm=0 / deadzone=21,11 / fast_pskip=0 / chroma_qp_offset=-3 / threads=12 / lookahead_threads=3 / sliced_threads=0 / nr=0 / decimate=0 / interlaced=0 / bluray_compat=0 / constrained_intra=0 / bframes=10 / b_pyramid=2 / b_adapt=2 / b_bias=0 / direct=3 / weightb=1 / open_gop=0 / weightp=2 / keyint=240 / keyint_min=24 / scenecut=40 / intra_refresh=0 / rc=2pass / mbtree=0 / bitrate=3295 / ratetol=1.0 / qcomp=0.60 / qpmin=0 / qpmax=51 / qpstep=4 / cplxblur=20.0 / qblur=0.5 / ip_ratio=1.40 / pb_ratio=1.30 / aq=1:1.00
Default : Yes
Forced : No
Color primaries : BT.709
Transfer characteristics : BT.709
Matrix coefficients : BT.709
Audio
ID : 2
Format : AC-3
Format/Info : Audio Coding 3
Mode extension : CM (complete main)
Format settings, Endianness : Big
Codec ID : A_AC3
Duration : 1h 21mn
Bit rate mode : Constant
Bit rate : 448 Kbps
Channel(s) : 2 channels
Channel positions : Front: L R
Sampling rate : 48.0 KHz
Bit depth : 16 bits
Compression mode : Lossy
Stream size : 262 MiB (12%)
Language : Russian
Default : Yes
Forced : No


Релиз от:
Автор релиза:



   Похожие торренты   Торрент   Размер 
В этой теме нет новых непрочитанных сообщений. Крякнутые каникулы (2015) BDRip от ExKinoRay

175 | 18

1.42 ГБ

В этой теме нет новых непрочитанных сообщений. Крякнутые каникулы (2015) WEB-DLRip

416 | 50

743.41 МБ

В этой теме нет новых непрочитанных сообщений. Крякнутые каникулы (2015) WEB-DLRip

3093 | 378

1.37 ГБ

В этой теме нет новых непрочитанных сообщений. Крякнутые каникулы (2015) WEB-DLRip от MegaPeer

135 | 3

744.53 МБ

В этой теме нет новых непрочитанных сообщений. Крякнутые каникулы (2016) WEB-DLRip 720p

8141 | 521

1.4 ГБ

В этой теме нет новых непрочитанных сообщений. Крякнутые каникулы (2015) BDRip от MegaPeer

114 | 4

1.46 ГБ

В этой теме нет новых непрочитанных сообщений. Крякнутые каникулы (2015) WEB-DRip от Scarabey

268 | 14

1.45 ГБ




Вы не можете начинать темы
Вы не можете отвечать на сообщения
Вы не можете редактировать свои сообщения
Вы не можете удалять свои сообщения
Вы не можете добавлять вложения

Перейти:  
Для Мосгорсуда, Роскомнадзора и рекламодателей: mosgorsud-torrent[собачка]yandex.ru
 Вход
ppkBB3cker v.2 © 2008-2014 @ PPK
[ Time : 0.040s | 16 Queries | GZIP : Off ]

cron