img image001 image001 image001 image001 image001 image001 image001 image001 image001 image001 image001 image001 image001 image001 image001

Planets Sun Sun Sun
Статистика раздачи
Автор: PriZraK | Размер: 876.56 МБ | Добавлен: 03 апр 2016
Раздают: 92    Качают: 4
Скачать торрент
Скачать торрент
Описание торрента

СообщениеДобавлено: 03 апр 2016 


Информация о фильме
Название: Рыцари Марвел (Росомаха против Саблезубого)
Оригинальное название: Marvel Knights. Wolverine Vs. Sabretooth
Год выхода: 2014
Жанр: Мультсериал, боевик, фантастика, комикс
Режиссер: Мауро Казалезе, Карл Апсделл
В ролях: Кэтлин Барр, Тревор Дивэлл, Майкл Добсон, Хезер Дорксен, Брайан Драммонд, Рон Халдер, Адриан Холмс, Алессандро Джулиани, Омари Ньютон
О фильме:Очередная мультипликационная экранизация комиксов Марвел о человека с геном Икс, а именно Росомахе. На этот раз он вступит в битву со своим злейшим врагом Саблезубым. Последний ненавидит Росомаху еще с тех времен, когда он получил адамантиевый скелет. Саблезубый известен своей жестокостью и тягой к убийствам. Это будет действительно зрелищная схватка.
Страна: США / Atomic Cartoons
Продолжительность: 6 x ~ 00:11:00
Перевод: дублированный
Файл
Кодек: XviD
Качество: SATRip
Видео: XviD, ~ 1797 Кбит/с, 640x480
Звук: AC3, 2 ch, 192 Кбит/с

Видео
Идентификатор : 0
Формат : MPEG-4 Visual
Профиль формата : Advanced Simple@L5
Параметр BVOP формата : 2
Параметр QPel формата : Нет
Параметр GMC формата : Без точки перехода
Параметр матрицы формата : Выборочная
Идентификатор кодека : XVID
Идентификатор кодека/Подсказка : XviD
Продолжительность : 20 м.
Битрейт : 1797 Кбит/сек
Ширина : 640 пикселей
Высота : 480 пикселей
Соотношение сторон : 4:3
Частота кадров : 25,000 кадров/сек
Цветовое пространство : YUV
Субдискретизация насыщенности : 4:2:0
Битовая глубина : 8 бит
Тип развёртки : Прогрессивная
Метод сжатия : С потерями
Бит/(Пиксели*Кадры) : 0.234
Размер потока : 263 Мбайт (90%)
Библиотека кодирования : XviD 64
Аудио
Идентификатор : 1
Формат : AC-3
Формат/Информация : Audio Coding 3
Расширение режима : CM (complete main)
Параметр Endianness формата : Big
Идентификатор кодека : 2000
Продолжительность : 20 м.
Вид битрейта : Постоянный
Битрейт : 192 Кбит/сек
Каналы : 2 канала
Расположение каналов : Front: L R
Частота : 48,0 КГц
Битовая глубина : 16 бит
Метод сжатия : С потерями
Размер потока : 28,1 Мбайт (10%)
Выравнивание : Разделение по промежуткам
Продолжительность промежутка : 40 мс. (1,00 видеокадр)
Время предзагрузки промежутка : 500 мс.

Релиз от:
Автор релиза: MusiCant



   Похожие торренты   Торрент   Размер 
В этой теме нет новых непрочитанных сообщений. Рыцари Марвел. Удивительные Люди Икс: Одаренные / Marvel Knights. Astonishing X-Men: Gifted [s01] (2009) DVD-Remux | D

140 | 40

3.4 ГБ

В этой теме нет новых непрочитанных сообщений. Росомаха. Оружие Икс: Завтра умрёт сегодня / Marvel Knights: Wolverine Weapon X: Tomorrow Dies Today [s01] (2014) DVDRip | D

191 | 26

1.06 ГБ

В этой теме нет новых непрочитанных сообщений. Неуловимая росомаха / Phantom wolverine (2010) SATRip

37 | 3

1.01 ГБ

В этой теме нет новых непрочитанных сообщений. Марвел: Беги! Круши! / Marvel: Run jump smash! (2014) Android

418 | 8

42.54 МБ

В этой теме нет новых непрочитанных сообщений. Последние рыцари / Last Knights (2015) HDRip - AVC от ExKinoRay | Чистый звук

190 | 16

744.06 МБ

В этой теме нет новых непрочитанных сообщений. Последние рыцари / Last Knights (2015) WEB-DLRip-AVC от ExKinoRay | Чистый звук

1531 | 51

1.87 ГБ

В этой теме нет новых непрочитанных сообщений. Последние рыцари / Last Knights (2015) HDRip-AVC от ExKinoRay | Чистый звук

460 | 30

1.92 ГБ




Вы не можете начинать темы
Вы не можете отвечать на сообщения
Вы не можете редактировать свои сообщения
Вы не можете удалять свои сообщения
Вы не можете добавлять вложения

Перейти:  
Для Мосгорсуда, Роскомнадзора и рекламодателей: mosgorsud-torrent[собачка]yandex.ru
 Вход
ppkBB3cker v.2 © 2008-2014 @ PPK
[ Time : 0.033s | 14 Queries | GZIP : Off ]

Торрент трекер RUTOR.IN, Не можете зайти на rutor.org? Какой новый адрес рутор? Какое зеркало рутор? Не работает rutor.org и зеркала? Тогда наш торрент специально для вас. Rutor.in неофициальное зеркало rutor. В случае если у Вас заблокирован rutor или вдруг Вы не можете на него зайти, то Вы без труда сможете скачать бесплатно и без рекламы последние новинки кино, игр, сериалов и прочего у нас, на Rutor.in. Не нужно использовать прокси, чтобы зайти на рутор, достаточно воспользоваться нашим ресурсом. Все новые фильмы, игры, сериалы, книги и музыка за 2013 и 2014 годы через торрент бесплатно. Скачивайте фильмы в хорошем качестве, игры для пк, xbox, playstation без регистрации. У нас вы найдете новые Зарубежные сериалы и Русские сериалы 2013, 2014, 2015 годов. Оставайтесь с нами, качайте любимые фильмы, игры, сериалы, книги и музыку.