img image001 image001 image001 image001 image001 image001 image001 image001 image001 image001 image001 image001 image001 image001 image001

Planets Sun Sun Sun
Статистика раздачи
Автор: Nickolas3434 | Размер: 6.57 ГБ | Добавлен: 04 апр 2016
Раздают: 8    Качают: 2
Скачать торрент
Скачать торрент
Описание торрента

СообщениеДобавлено: 04 апр 2016 

Информация о фильме
Название: Катя и Мим-Мим
Оригинальное название: Kate and Mim-Mim
Год выхода: 2014
Страна: Канада, DHX Media, Nerd Corps Entertainment
Жанр: Мультсериал, детский, семейный, приключения
Продолжительность: 36 x ~ 00:11:02
Перевод: Профессиональный дублированный
Режиссеры: Себастьян Бродин, Клинт Батлер, James Corrigall, ...
Роли озвучивали: Брайан Драммонд, Дэвид Годфри, Марика Хендрикс, Jeff Schjerlund, Табита Сен-Жермен, ...
Роли дублировали:
Катя - Дарья Фролова
Мим-Мим, Папа - Антон Савенков
Тэк, Мама - Марина Бакина
Габл - Иван Калинин
Лили, Бумер - Ольга Голованова
О фильме:
Мультфильм для детей про приключения девочки Кати, зайчика Мим-Мима и их друзей. Знакомьтесь, это Катя, ей 5 лет, вместе со своей любимой игрушкой зайцем Мим-Мимом они путешествуют в мире Мимилу.
Сезон 1
2014, эпизодов: 52 (1 сентября - 17 ноября 2014)
01. Шарик для друга / Balloon Buddies
02. Сияй, Звезда! / Twinkle Twinkle
03. Приступ Смехожуков / A Case of the Giggles
04. Икота и ночь на природе / Hiccups and Night Fun
05. Неистовая гонка / Rip Roaring Race
06. Охота за семенем / The Need for Seed
07. Без цветов никуда / Colour Me Happy
08. Котята и Шерстята / Kittens and Mittens
09. Суета вокруг хвоста / Tail Tale
10. Сила дружбы / Mirror Mirror
11. Размер Бумера / Boomer Size
12. Лунное несчастье / Mim-Mim's Moon Mishap
13. Ти-Хи-Рекс / Tee Hee Rex
14. Музыкальный мега-инструмент / Mega Music Maker
15. Затерянный остров / Lost Island
16. Полет на цветах / Flight of the Flowers
17. Облачный замок / Cloud Castle
18. Снежный боулинг / Snow Bowling
19. День Святого Валентина / Valentine Friends
20. Окончание сказки / A Storybook Ending
21. Чей запах лучше? / Snifferific
22. Великое путешествие / Summer Funday Drive
23. МегаМим / Mega Mim
24. Катя - волшебница / Kate the Great
25. Большая уборка / Clean Sweep
26. Принцесса Катя / Princess Kate
27. Легче воздуха / Lighter Than Air
28. Талант Габла / Gobble's Gift
29. Рождественские приключения / A Wish for Christmas
30. Рождественские приключения. Часть 2 / A Wish for Christmas. P-2
31. Няни Сквуша / Babysitting Squoosh
32. Снеговик Чилли / Chilly the Snowman
33. Дело Хамелипотама / The Curious Case of the Chamelippoo
34. Подводный пузырь / Bubble Subble
35. Поиски дома дракона / Kate's Dragon Quest
36. Цветы-бабочки / Butterfly Flowers



Доп. информация:
Сэмпл


Файл
Формат: MP4
Качество: WEBRip 1080p
Видео: MPEG4-AVC, [email protected], 1920x1080 (16:9), ~ 2 851 Kbps, 25.000 fps
Звук: 44.1 KHz, AAC-LC 2.0, 192 Kbps
Субтитры: нет
30. Рождественские приключения - часть 2. Full-HD-merci-.mp4
Format : MPEG-4
Format profile : Base Media
Codec ID : isom (isom)
File size : 238 MiB
Duration : 10mn 55s
Overall bit rate mode : Variable
Overall bit rate : 3 046 Kbps
Encoded date : UTC 2016-03-28 18:10:18
Tagged date : UTC 2016-03-28 18:10:18
Writing application : My MP4Box GUI 0.6.0.6
Video
ID : 1
Format : AVC
Format/Info : Advanced Video Codec
Format profile : High@L4
Format settings, CABAC : Yes
Format settings, ReFrames : 3 frames
Codec ID : avc1
Codec ID/Info : Advanced Video Coding
Duration : 10mn 55s
Bit rate : 2 851 Kbps
Maximum bit rate : 11.3 Mbps
Width : 1 920 pixels
Height : 1 080 pixels
Display aspect ratio : 16:9
Frame rate mode : Constant
Frame rate : 25.000 fps
Color space : YUV
Chroma subsampling : 4:2:0
Bit depth : 8 bits
Scan type : Progressive
Bits/(Pixel*Frame) : 0.055
Stream size : 223 MiB (94%)
Title : 30-1080.mp4
Encoded date : UTC 2016-03-17 03:43:43
Tagged date : UTC 2016-03-28 18:10:38
Audio
ID : 2
Format : AAC
Format/Info : Advanced Audio Codec
Format profile : LC
Codec ID : 40
Duration : 10mn 55s
Bit rate mode : Variable
Bit rate : 192 Kbps
Maximum bit rate : 201 Kbps
Channel(s) : 2 channels
Channel positions : Front: L R
Sampling rate : 44.1 KHz
Frame rate : 43.066 fps (1024 spf)
Compression mode : Lossy
Stream size : 15.0 MiB (6%)
Title : 30-ru.aac
Encoded date : UTC 2016-03-28 18:10:37
Tagged date : UTC 2016-03-28 18:10:38


Релиз от: -merci-



   Похожие торренты   Торрент   Размер 
В этой теме нет новых непрочитанных сообщений. Катя и Мим-Мим / Kate and Mim-Mim [01-36 из 52] (2014) WEBRip 1080p от -merci- | D

1 | 129

6.78 ГБ

В этой теме нет новых непрочитанных сообщений. Катя и Мим-Мим / Kate and Mim-Mim [01-36 из 52] (2014) WEBRip 1080p от -merci- | D

24 | 3

5.99 ГБ

В этой теме нет новых непрочитанных сообщений. Катя и Мим-Мим / Kate and Mim-Mim [01-36 из 52] (2014) WEBRip 1080p от -merci- | D

3 | 4

6.95 ГБ

В этой теме нет новых непрочитанных сообщений. Катя и Мим-Мим / Kate and Mim-Mim [01-39 из 52] (2014) WEBRip от -merci- | D

17 | 2

5.91 ГБ

В этой теме нет новых непрочитанных сообщений. Катя и Мим-Мим / Kate and Mim-Mim [01-39 из 52] (2014) WEBRip от -merci- | D

8 | 3

5.12 ГБ

В этой теме нет новых непрочитанных сообщений. Катя и Мим-Мим / Kate and Mim-Mim [01-39 из 52] (2014) WEBRip от -merci- | D

10 | 4

5.38 ГБ

В этой теме нет новых непрочитанных сообщений. Катя и Мим-Мим / Kate and Mim-Mim [01-36 из 52] (2014) WEBRip 720p от -merci- | D

0 | 0

4.52 ГБ




Вы не можете начинать темы
Вы не можете отвечать на сообщения
Вы не можете редактировать свои сообщения
Вы не можете удалять свои сообщения
Вы не можете добавлять вложения

Перейти:  
Для Мосгорсуда, Роскомнадзора и рекламодателей: mosgorsud-torrent[собачка]yandex.ru
 Вход
ppkBB3cker v.2 © 2008-2014 @ PPK
[ Time : 0.055s | 15 Queries | GZIP : Off ]

Торрент трекер RUTOR.IN, Не можете зайти на rutor.org? Какой новый адрес рутор? Какое зеркало рутор? Не работает rutor.org и зеркала? Тогда наш торрент специально для вас. Rutor.in неофициальное зеркало rutor. В случае если у Вас заблокирован rutor или вдруг Вы не можете на него зайти, то Вы без труда сможете скачать бесплатно и без рекламы последние новинки кино, игр, сериалов и прочего у нас, на Rutor.in. Не нужно использовать прокси, чтобы зайти на рутор, достаточно воспользоваться нашим ресурсом. Все новые фильмы, игры, сериалы, книги и музыка за 2013 и 2014 годы через торрент бесплатно. Скачивайте фильмы в хорошем качестве, игры для пк, xbox, playstation без регистрации. У нас вы найдете новые Зарубежные сериалы и Русские сериалы 2013, 2014, 2015 годов. Оставайтесь с нами, качайте любимые фильмы, игры, сериалы, книги и музыку.