img image001 image001 image001 image001 image001 image001 image001 image001 image001 image001 image001 image001 image001 image001 image001

Planets Sun Sun Sun
Статистика раздачи
Автор: Nickolas3434 | Размер: 885.05 МБ | Добавлен: 04 апр 2016
Раздают: 66    Качают: 3
Скачать торрент
Скачать торрент
Описание торрента

СообщениеДобавлено: 04 апр 2016 


Информация о фильме
Название: Дядя Деда
Оригинальное название: Uncle Grandpa
Год выхода: 2015-2016
Жанр: Мультсериал, комедия, приключения, детский
Режиссер: Билл Флорес, Марк Боднар
В ролях: Питер Браунгардт, Эрик Бауза, Адам Дивайн, Кевин Майкл Ричардсон, Грей Делайл, Джонатан Адамс, Тим Блэйни, Оди Харрисон, Джаред Рут, Захари Гордон, Том Кенни
О фильме:Дядя Деда — сюрреалистичный мультсериал от создателей мультфильма "Пора приключений". Главный герой этого анимационного сериала – «волшебный» Дядя Деда - мировой дедушка всех детей на свете, который во время своих удивительных странствий старается навестить всех детей, чтобы проверить, как те поживают, а когда у ребят возникают какие-то проблемы, то по мере возможности решает их. У дяди Дед есть верные помощники: эгоистичный кусок пиццы в черных очках, Пицца Стив, говорящая сумка Барсет, Огромная Летающая Тигра и угрюмый динозавр Гус. В центре сюжета каждого эпизода реальные детские проблемы и терзания, и, как всегда, их альтернативное решение - забавное, абсурдное, возможно, нелепое, а в итоге - умное и терапевтичное. Дядя Деда - лучший помощник детишкам в любых делах!
Страна: США, Cartoon Network
Продолжительность: 6 x ~ 00:11:00
Перевод: Дублированный
Файл
Кодек: XviD
Качество: SATRip
Видео: XviD, ~ 1800 Кбит/с, 720x464
Звук: AC3, 2 ch, 192 Кбит/с

Видео
Идентификатор : 0
Формат : MPEG-4 Visual
Профиль формата : Advanced Simple@L5
Параметр BVOP формата : 2
Параметр QPel формата : Нет
Параметр GMC формата : Без точки перехода
Параметр матрицы формата : Выборочная
Идентификатор кодека : XVID
Идентификатор кодека/Подсказка : XviD
Продолжительность : 10 м.
Битрейт : 1793 Кбит/сек
Ширина : 720 пикселей
Высота : 464 пикселя
Соотношение сторон : 16:10
Частота кадров : 25,000 кадров/сек
Цветовое пространство : YUV
Субдискретизация насыщенности : 4:2:0
Битовая глубина : 8 бит
Тип развёртки : Прогрессивная
Метод сжатия : С потерями
Бит/(Пиксели*Кадры) : 0.215
Размер потока : 137 Мбайт (90%)
Библиотека кодирования : XviD 64
Аудио
Идентификатор : 1
Формат : AC-3
Формат/Информация : Audio Coding 3
Расширение режима : CM (complete main)
Параметр Endianness формата : Big
Идентификатор кодека : 2000
Продолжительность : 10 м.
Вид битрейта : Постоянный
Битрейт : 192 Кбит/сек
Каналы : 2 канала
Расположение каналов : Front: L R
Частота : 48,0 КГц
Битовая глубина : 16 бит
Метод сжатия : С потерями
Размер потока : 14,7 Мбайт (10%)
Выравнивание : Разделение по промежуткам
Продолжительность промежутка : 40 мс. (1,00 видеокадр)
Время предзагрузки промежутка : 500 мс.

Релиз от:
Автор релиза:



   Похожие торренты   Торрент   Размер 
В этой теме нет новых непрочитанных сообщений. Дядя Деда / Uncle Grandpa [03x01-02] (2015-2016) SATRip от ExKinoRay | D

0 | 1

304.53 МБ

В этой теме нет новых непрочитанных сообщений. Дядя Деда / Uncle Grandpa [01-11, 13, 14 из 26] (2013) SATRip от New-Team | D

349 | 49

2.15 ГБ

В этой теме нет новых непрочитанных сообщений. Дядя Джон / Uncle John (2015) WEB-DLRip | L2

28 | 4

2.05 ГБ

В этой теме нет новых непрочитанных сообщений. Дядя Джон / Uncle John (2015) WEB-DLRip | L2

497 | 36

1.45 ГБ

В этой теме нет новых непрочитанных сообщений. Дядя Джон / Uncle John (2015) WEB-DLRip | L2

229 | 10

1.37 ГБ

В этой теме нет новых непрочитанных сообщений. Дядя Джон / Uncle John (2015) WEB-DL 720p | L2

156 | 1

3.68 ГБ

В этой теме нет новых непрочитанных сообщений. Дядя Джон / Uncle John (2015) WEB-DL 720p | L2

42 | 2

3.68 ГБ




Вы не можете начинать темы
Вы не можете отвечать на сообщения
Вы не можете редактировать свои сообщения
Вы не можете удалять свои сообщения
Вы не можете добавлять вложения

Перейти:  
Для Мосгорсуда, Роскомнадзора и рекламодателей: mosgorsud-torrent[собачка]yandex.ru
 Вход
ppkBB3cker v.2 © 2008-2014 @ PPK
[ Time : 0.021s | 14 Queries | GZIP : Off ]

Торрент трекер RUTOR.IN, Не можете зайти на rutor.org? Какой новый адрес рутор? Какое зеркало рутор? Не работает rutor.org и зеркала? Тогда наш торрент специально для вас. Rutor.in неофициальное зеркало rutor. В случае если у Вас заблокирован rutor или вдруг Вы не можете на него зайти, то Вы без труда сможете скачать бесплатно и без рекламы последние новинки кино, игр, сериалов и прочего у нас, на Rutor.in. Не нужно использовать прокси, чтобы зайти на рутор, достаточно воспользоваться нашим ресурсом. Все новые фильмы, игры, сериалы, книги и музыка за 2013 и 2014 годы через торрент бесплатно. Скачивайте фильмы в хорошем качестве, игры для пк, xbox, playstation без регистрации. У нас вы найдете новые Зарубежные сериалы и Русские сериалы 2013, 2014, 2015 годов. Оставайтесь с нами, качайте любимые фильмы, игры, сериалы, книги и музыку.