img image001 image001 image001 image001 image001 image001 image001 image001 image001 image001 image001 image001 image001 image001 image001

Planets Sun Sun Sun
Статистика раздачи
Автор: Nickolas3434 | Размер: 1.41 ГБ | Добавлен: 05 апр 2016
Раздают: 247    Качают: 2
Скачать торрент
Скачать торрент
Описание торрента

СообщениеДобавлено: 05 апр 2016 


Информация о фильме
Название: Савва. Сердце воина
Год выхода: 2015
Жанр: Мультфильм, приключения, фэнтези
Режиссер: Максим Фадеев
В ролях: Константин Хабенский, Фёдор Бондарчук, Армен Джигарханян, Григорий Лепс, Сергей Шнуров, Михаил Галустян, Глюкоза, Сергей Гармаш, Лолита Милявская, Николай Басков
О фильме:
История о мальчике Савве десяти лет, который живёт в маленькой лесной деревне. Когда-то деревню от врагов защищали благородные белые волки. Но однажды волки исчезли и на деревню напала банда свирепых Гиен. Савве удаётся сбежать в лес, где он знакомится с Ангой — последним белым волком. Анга рассказывает Савве о могущественном Волшебнике, который живёт на горе и может помочь Савве освободить его деревню. Но, к сожалению, эту гору окружает огромное войско, под предводительством злобной Мамы ЖоЗи — трёхголовой королевы обезьян. Справляясь с непреодолимыми трудностями, Савва и Анга начинают свой длинный и опасный путь на гору. По пути к ним присоединяются и другие путешественники: Пусик — странное розовое пушистое существо; Фафл — самоуверенный тип, похожий на француза, который в действительности является заколдованным полубароном и вынужден носить на плече короля комаров; принцессу болотного племени Нанти и других. У всех есть свои личные причины, чтобы идти к Волшебнику. По пути к своей цели, друзьям предстоит преодолеть множество препятствий, узнать страшные тайны и вступить в битву с войском обезьян и коварной Мамой ЖоЗи.

Страна: Россия
Студия: Глюкоза Продакшн, Art Pictures Studio
Продолжительность: 01:27:20
Перевод: Не требуется
Файл
Качество: HDRip (AVC)
Видео: MPEG-4 AVC, 1855 Кбит/с, 1024x432
Аудио: АС3, 6 ch, 448 Кбит/с
General
Unique ID : 242551929319043832272564218380704202786 (0xB679CD68695D5995BA924A1D82DEC022)
Complete name : C:Savva.Serdce.Voina.2015.HDRip.AVC.ExKinoRay.mkv
Format : Matroska
Format version : Version 4 / Version 2
File size : 1.41 GiB
Duration : 1h 27mn
Overall bit rate : 2 305 Kbps
Movie name : Savva Serdce Voina 2015 from ExKinoRay
Encoded date : UTC 2016-04-03 02:28:54
Writing application : mkvmerge v6.6.0 ('The Edge Of The In Between') built on Dec 1 2013 17:55:00
Writing library : libebml v1.3.0 + libmatroska v1.4.1
Video
ID : 1
Format : AVC
Format/Info : Advanced Video Codec
Format profile : High@L4.1
Format settings, CABAC : Yes
Format settings, ReFrames : 11 frames
Codec ID : V_MPEG4/ISO/AVC
Duration : 1h 27mn
Bit rate : 1 855 Kbps
Width : 1 024 pixels
Height : 432 pixels
Display aspect ratio : 2.40:1
Frame rate mode : Constant
Frame rate : 24.000 fps
Color space : YUV
Chroma subsampling : 4:2:0
Bit depth : 8 bits
Scan type : Progressive
Bits/(Pixel*Frame) : 0.175
Stream size : 1.10 GiB (79%)
Title : Enigma
Writing library : x264 core 142 r2431 ac76440
Encoding settings : cabac=1 / ref=11 / deblock=1:-2:-2 / analyse=0x3:0x113 / me=umh / subme=10 / psy=1 / psy_rd=1.05:0.15 / mixed_ref=1 / me_range=32 / chroma_me=1 / trellis=2 / 8x8dct=1 / cqm=0 / deadzone=21,11 / fast_pskip=0 / chroma_qp_offset=-3 / threads=12 / lookahead_threads=3 / sliced_threads=0 / nr=0 / decimate=0 / interlaced=0 / bluray_compat=0 / constrained_intra=0 / bframes=10 / b_pyramid=2 / b_adapt=2 / b_bias=0 / direct=3 / weightb=1 / open_gop=0 / weightp=2 / keyint=240 / keyint_min=24 / scenecut=40 / intra_refresh=0 / rc_lookahead=40 / rc=2pass / mbtree=0 / bitrate=1855 / ratetol=1.0 / qcomp=0.60 / qpmin=0 / qpmax=51 / qpstep=4 / cplxblur=20.0 / qblur=0.5 / vbv_maxrate=50000 / vbv_bufsize=62500 / nal_hrd=none / filler=0 / ip_ratio=1.40 / pb_ratio=1.30 / aq=1:1.00
Language : English
Default : Yes
Forced : No
Color primaries : BT.709
Transfer characteristics : BT.709
Matrix coefficients : BT.709
Audio
ID : 2
Format : AC-3
Format/Info : Audio Coding 3
Mode extension : CM (complete main)
Format settings, Endianness : Big
Codec ID : A_AC3
Duration : 1h 27mn
Bit rate mode : Constant
Bit rate : 448 Kbps
Channel(s) : 6 channels
Channel positions : Front: L C R, Side: L R, LFE
Sampling rate : 48.0 KHz
Bit depth : 16 bits
Compression mode : Lossy
Stream size : 280 MiB (19%)
Language : Russian
Default : Yes
Forced : No
Menu
00:00:00.000 : ru:Chapter 01
00:04:56.500 : ru:Chapter 02
00:13:36.750 : ru:Chapter 03
00:19:56.333 : ru:Chapter 04
00:28:01.416 : ru:Chapter 05
00:33:43.208 : ru:Chapter 06
00:41:19.583 : ru:Chapter 07
00:48:14.583 : ru:Chapter 08
00:56:44.041 : ru:Chapter 09
00:59:33.333 : ru:Chapter 10
01:07:51.291 : ru:Chapter 11
01:14:34.083 : ru:Chapter 12
01:27:19.958 : ru:Chapter 13


Релиз от:
Автор релиза:



   Похожие торренты   Торрент   Размер 
В этой теме нет новых непрочитанных сообщений. Савва. Сердце воина (2015) BDRip 1080p от ExKinoRay | Лицензия

1609 | 144

5.84 ГБ

В этой теме нет новых непрочитанных сообщений. Савва. Сердце воина (2015) HDRip от KinoHitHD | КПК | Лицензия

634 | 37

455.43 МБ

В этой теме нет новых непрочитанных сообщений. Савва. Сердце воина (2015) WEB-DLRip-AVC от ExKinoRay

462 | 25

743.65 МБ

В этой теме нет новых непрочитанных сообщений. Савва. Сердце воина (2015) BDRip | Лицензия

834 | 39

742.98 МБ

В этой теме нет новых непрочитанных сообщений. Савва. Сердце воина (2015) BDRip | Лицензия

4640 | 254

1.46 ГБ

В этой теме нет новых непрочитанных сообщений. Савва. Сердце воина (2015) BDRip от GeneralFilm | Лицензия

563 | 32

699.45 МБ

В этой теме нет новых непрочитанных сообщений. Савва. Сердце воина (2015) HDRip-1080p | Трэйлер

1649 | 73

32.77 МБ




Вы не можете начинать темы
Вы не можете отвечать на сообщения
Вы не можете редактировать свои сообщения
Вы не можете удалять свои сообщения
Вы не можете добавлять вложения

Перейти:  
Для Мосгорсуда, Роскомнадзора и рекламодателей: mosgorsud-torrent[собачка]yandex.ru
 Вход
ppkBB3cker v.2 © 2008-2014 @ PPK
[ Time : 0.078s | 16 Queries | GZIP : Off ]

Торрент трекер RUTOR.IN, Не можете зайти на rutor.org? Какой новый адрес рутор? Какое зеркало рутор? Не работает rutor.org и зеркала? Тогда наш торрент специально для вас. Rutor.in неофициальное зеркало rutor. В случае если у Вас заблокирован rutor или вдруг Вы не можете на него зайти, то Вы без труда сможете скачать бесплатно и без рекламы последние новинки кино, игр, сериалов и прочего у нас, на Rutor.in. Не нужно использовать прокси, чтобы зайти на рутор, достаточно воспользоваться нашим ресурсом. Все новые фильмы, игры, сериалы, книги и музыка за 2013 и 2014 годы через торрент бесплатно. Скачивайте фильмы в хорошем качестве, игры для пк, xbox, playstation без регистрации. У нас вы найдете новые Зарубежные сериалы и Русские сериалы 2013, 2014, 2015 годов. Оставайтесь с нами, качайте любимые фильмы, игры, сериалы, книги и музыку.