img image001 image001 image001 image001 image001 image001 image001 image001 image001 image001 image001 image001 image001 image001 image001

Planets Sun Sun Sun
Статистика раздачи
Автор: Nickolas3434 | Размер: 147.71 МБ | Добавлен: 07 апр 2016
Раздают: 45    Качают: 3
Скачать торрент
Скачать торрент
Описание торрента

СообщениеДобавлено: 07 апр 2016 

Путешествие муравья / Travels of an Ant (1983) DVDRip [480p] от SDIncorporation | P

Информация о фильме
Русское название: Путешествие муравья
Оригинальное название: Путешествие муравья
Страна: СССР
Год выпуска: 1983
Жанр: Мультфильм, Короткометражка, Семейный
Перевод: Не требуется
Режиссер: Эдуард Назаров
Работа над релизом: Nod33Eset(retvil)
69SexyMan
О фильме:
В основу фильма положена сказка В. Бианки «Как муравьишка домой спешил». В нем рассказывается о злоключениях хвастливого муравьишки, унесенного ветром в лес, и о том, как гусеница, кузнечик, водомер и майский жук помогли ему до захода солнца попасть домой.


Продолжительность: 00:09:12
Качество видео: DVDRip 480p
Видеокодек: AVC
Формат: MKV
Битрейт видео: ~2200 Kbps
Размер кадра: 632x480
Аудиокодек: AC3
Битрейт аудио: 224 Kbps
Аудио #1: Русский (48 kHz, AC3 Dolby Digital, 2 channels, 224 Kbps) — Оригинал


General
Unique ID : 222832086545042820940717878073625781556 (0xA7A3E618113DCC01AF28417D8031A534)
Complete name : Travels.of.an.Ant.480p-HQ.1983.Russian.SDIncorporation.mkv
Format : Matroska
Format version : Version 4 / Version 2
File size : 148 MiB
Duration : 9mn 12s
Overall bit rate mode : Variable
Overall bit rate : 2 245 Kbps
Movie name : Travels of an Ant [480p-HQ] (1983) © SDIncorporation
Encoded date : UTC 2016-03-18 15:56:29
Writing application : mkvmerge v8.9.0 ('Father Daughter') 64bit
Writing library : libebml v1.3.3 + libmatroska v1.4.4
Video
ID : 1
Format : AVC
Format/Info : Advanced Video Codec
Format profile : Main@L3
Format settings, CABAC : Yes
Format settings, ReFrames : 3 frames
Codec ID : V_MPEG4/ISO/AVC
Duration : 9mn 11s
Bit rate mode : Variable
Bit rate : 2 019 Kbps
Maximum bit rate : 1 600 Kbps
Width : 632 pixels
Height : 480 pixels
Display aspect ratio : 4:3
Original display aspect rat : 16:9
Frame rate mode : Constant
Frame rate : 25.000 fps
Standard : NTSC
Color space : YUV
Chroma subsampling : 4:2:0
Bit depth : 8 bits
Scan type : Progressive
Bits/(Pixel*Frame) : 0.266
Stream size : 133 MiB (90%)
Title : Video
Default : Yes
Forced : No
Color range : Limited
Audio
ID : 2
Format : AC-3
Format/Info : Audio Coding 3
Mode extension : CM (complete main)
Format settings, Endianness : Big
Codec ID : A_AC3
Duration : 9mn 12s
Bit rate mode : Constant
Bit rate : 224 Kbps
Channel(s) : 2 channels
Channel positions : Front: L R
Sampling rate : 48.0 KHz
Frame rate : 31.250 fps (1536 spf)
Compression mode : Lossy
Stream size : 14.7 MiB (10%)
Title : Russian
Language : Russian
Default : Yes
Forced : No




Время раздачи: С 8:00 до 22:00
Релиз от: ©SDIncorporation



   Похожие торренты   Торрент   Размер 
В этой теме нет новых непрочитанных сообщений. Путешествие муравья HDTVRip 720p от SDIncorporation

70 | 3

317.96 МБ

В этой теме нет новых непрочитанных сообщений. Путешествие муравья (1983) DVDRip

123 | 8

194.27 МБ

В этой теме нет новых непрочитанных сообщений. Голго 13 Профи / Golgo 13 The Professional (1983) HDTVRip 720p от SDIncorporation | Sub

4 | 6

4.46 ГБ

В этой теме нет новых непрочитанных сообщений. Голго 13 Профи / Golgo 13 The Professional (1983) HDTVRip 1080p от SDIncorporation | Sub

2 | 6

9.49 ГБ

В этой теме нет новых непрочитанных сообщений. Дилижанс - Путешествие дилижанса (1983) MP3

188 | 8

65.03 МБ

В этой теме нет новых непрочитанных сообщений. Юрий Лоза - Путешествие В Рок-н-Ролл (1983) АРЕ

4 | 8

294.86 МБ

В этой теме нет новых непрочитанных сообщений. Путешествие к Морю / Podróż Nad Morze (1983) TVRip | L1

6 | 16

302.67 МБ




Вы не можете начинать темы
Вы не можете отвечать на сообщения
Вы не можете редактировать свои сообщения
Вы не можете удалять свои сообщения
Вы не можете добавлять вложения

Перейти:  
Для Мосгорсуда, Роскомнадзора и рекламодателей: mosgorsud-torrent[собачка]yandex.ru
 Вход
ppkBB3cker v.2 © 2008-2014 @ PPK
[ Time : 0.027s | 15 Queries | GZIP : Off ]

Торрент трекер RUTOR.IN, Не можете зайти на rutor.org? Какой новый адрес рутор? Какое зеркало рутор? Не работает rutor.org и зеркала? Тогда наш торрент специально для вас. Rutor.in неофициальное зеркало rutor. В случае если у Вас заблокирован rutor или вдруг Вы не можете на него зайти, то Вы без труда сможете скачать бесплатно и без рекламы последние новинки кино, игр, сериалов и прочего у нас, на Rutor.in. Не нужно использовать прокси, чтобы зайти на рутор, достаточно воспользоваться нашим ресурсом. Все новые фильмы, игры, сериалы, книги и музыка за 2013 и 2014 годы через торрент бесплатно. Скачивайте фильмы в хорошем качестве, игры для пк, xbox, playstation без регистрации. У нас вы найдете новые Зарубежные сериалы и Русские сериалы 2013, 2014, 2015 годов. Оставайтесь с нами, качайте любимые фильмы, игры, сериалы, книги и музыку.
cron