img image001 image001 image001 image001 image001 image001 image001 image001 image001 image001 image001 image001 image001 image001 image001

Planets Sun Sun Sun
Статистика раздачи
Автор: Nickolas3434 | Размер: 317.96 МБ | Добавлен: 07 апр 2016
Раздают: 24    Качают: 2
Скачать торрент
Скачать торрент
Описание торрента

СообщениеДобавлено: 07 апр 2016 

Путешествие муравья / Travels of an Ant (1983) HDTVRip [720p] от SDIncorporation | P

Информация о фильме
Русское название: Путешествие муравья
Оригинальное название: Путешествие муравья
Страна: СССР
Год выпуска: 1983
Жанр: Мультфильм, Короткометражка, Семейный
Перевод: Не требуется
Режиссер: Эдуард Назаров
Работа над релизом: Nod33Eset(retvil)
StreetDespair
О фильме:
В основу фильма положена сказка В. Бианки «Как муравьишка домой спешил». В нем рассказывается о злоключениях хвастливого муравьишки, унесенного ветром в лес, и о том, как гусеница, кузнечик, водомер и майский жук помогли ему до захода солнца попасть домой.


Продолжительность: 00:09:12
Качество видео: HDTVRip 720p
Видеокодек: AVC
Формат: MKV
Битрейт видео: ~4800 Kbps
Размер кадра: 952x720 pixels
Аудиокодек: AC3
Битрейт аудио: 224 Kbps
Аудио #1: Русский (48 kHz, AC3 Dolby Digital, 2 channels, 224 Kbps) — Оригинал


General
Unique ID : 177285241207724170250957072978646326369 (0x855FE53DC8808B02ABBA94A81E3EDC61)
Complete name : Travels.of.an.Ant.720p-LQ.1983.Russian.SDIncorporation.mkv
Format : Matroska
Format version : Version 4 / Version 2
File size : 318 MiB
Duration : 9mn 12s
Overall bit rate mode : Variable
Overall bit rate : 4 832 Kbps
Movie name : Travels of an Ant [720p-LQ] (1983) © SDIncorporation
Encoded date : UTC 2016-03-18 16:29:30
Writing application : mkvmerge v8.9.0 ('Father Daughter') 64bit
Writing library : libebml v1.3.3 + libmatroska v1.4.4
Video
ID : 1
Format : AVC
Format/Info : Advanced Video Codec
Format profile : Main@L3.1
Format settings, CABAC : Yes
Format settings, ReFrames : 3 frames
Codec ID : V_MPEG4/ISO/AVC
Duration : 9mn 11s
Bit rate mode : Variable
Bit rate : 4 606 Kbps
Maximum bit rate : 16.0 Mbps
Width : 952 pixels
Height : 720 pixels
Display aspect ratio : 4:3
Original display aspect rat : 16:9
Frame rate mode : Constant
Frame rate : 25.000 fps
Standard : NTSC
Color space : YUV
Chroma subsampling : 4:2:0
Bit depth : 8 bits
Scan type : Progressive
Bits/(Pixel*Frame) : 0.269
Stream size : 303 MiB (95%)
Title : Video
Default : Yes
Forced : No
Color range : Limited
Audio
ID : 2
Format : AC-3
Format/Info : Audio Coding 3
Mode extension : CM (complete main)
Format settings, Endianness : Big
Codec ID : A_AC3
Duration : 9mn 12s
Bit rate mode : Constant
Bit rate : 224 Kbps
Channel(s) : 2 channels
Channel positions : Front: L R
Sampling rate : 48.0 KHz
Frame rate : 31.250 fps (1536 spf)
Compression mode : Lossy
Stream size : 14.7 MiB (5%)
Title : Russian
Language : Russian
Default : Yes
Forced : No




Время раздачи: С 8:00 до 22:00
Релиз от: ©SDIncorporation



   Похожие торренты   Торрент   Размер 
В этой теме нет новых непрочитанных сообщений. Путешествие муравья (1983) DVDRip-AVC от SDIncorporation

45 | 3

147.71 МБ

В этой теме нет новых непрочитанных сообщений. Путешествие муравья (1983) DVDRip

123 | 8

194.27 МБ

В этой теме нет новых непрочитанных сообщений. Василиса Прекрасная (1977) HDTVRip 720p от SDIncorporation

73 | 9

626.5 МБ

В этой теме нет новых непрочитанных сообщений. Монстр / Monster [01-74 из 74] (2004) HDTVRip 720p от SDIncorporation | Sub

53 | 32

22.74 ГБ

В этой теме нет новых непрочитанных сообщений. В стране невыученных уроков (1969) HDTVRip 720p от SDIncorporation | P

261 | 9

696.01 МБ

В этой теме нет новых непрочитанных сообщений. Сказка о царе Салтане (1984) HDTVRip 720p от SDIncorporation

152 | 6

1.78 ГБ

В этой теме нет новых непрочитанных сообщений. Тетрадь смерти / Death Note (2006) [01-10 из 37] HDTVRip 720p от SDIncorporation | P

13 | 5

4.61 ГБ




Вы не можете начинать темы
Вы не можете отвечать на сообщения
Вы не можете редактировать свои сообщения
Вы не можете удалять свои сообщения
Вы не можете добавлять вложения

Перейти:  
Для Мосгорсуда, Роскомнадзора и рекламодателей: mosgorsud-torrent[собачка]yandex.ru
 Вход
ppkBB3cker v.2 © 2008-2014 @ PPK
[ Time : 0.027s | 14 Queries | GZIP : Off ]

Торрент трекер RUTOR.IN, Не можете зайти на rutor.org? Какой новый адрес рутор? Какое зеркало рутор? Не работает rutor.org и зеркала? Тогда наш торрент специально для вас. Rutor.in неофициальное зеркало rutor. В случае если у Вас заблокирован rutor или вдруг Вы не можете на него зайти, то Вы без труда сможете скачать бесплатно и без рекламы последние новинки кино, игр, сериалов и прочего у нас, на Rutor.in. Не нужно использовать прокси, чтобы зайти на рутор, достаточно воспользоваться нашим ресурсом. Все новые фильмы, игры, сериалы, книги и музыка за 2013 и 2014 годы через торрент бесплатно. Скачивайте фильмы в хорошем качестве, игры для пк, xbox, playstation без регистрации. У нас вы найдете новые Зарубежные сериалы и Русские сериалы 2013, 2014, 2015 годов. Оставайтесь с нами, качайте любимые фильмы, игры, сериалы, книги и музыку.