img image001 image001 image001 image001 image001 image001 image001 image001 image001 image001 image001 image001 image001 image001 image001

Planets Sun Sun Sun
Статистика раздачи
Автор: Nickolas3434 | Размер: 4.74 ГБ | Добавлен: 10 апр 2016
Раздают: 0    Качают: 18
Скачать торрент
Скачать торрент
Описание торрента

СообщениеДобавлено: 10 апр 2016 

Информация о фильме
Название: Катя и Мим-Мим
Оригинальное название: Kate and Mim-Mim
Год выхода: 2014
Страна: Канада, DHX Media, Nerd Corps Entertainment
Жанр: Мультсериал, детский, семейный, приключения
Продолжительность: 36 x ~ 00:11:02
Перевод: Профессиональный дублированный
Режиссеры: Себастьян Бродин, Клинт Батлер, James Corrigall, ...
Роли озвучивали: Брайан Драммонд, Дэвид Годфри, Марика Хендрикс, Jeff Schjerlund, Табита Сен-Жермен, ...
Роли дублировали:
Катя - Дарья Фролова
Мим-Мим, Папа - Антон Савенков
Тэк, Мама - Марина Бакина
Габл - Иван Калинин
Лили, Бумер - Ольга Голованова
О фильме:
Мультфильм для детей про приключения девочки Кати, зайчика Мим-Мима и их друзей. Знакомьтесь, это Катя, ей 5 лет, вместе со своей любимой игрушкой зайцем Мим-Мимом они путешествуют в мире Мимилу.
Сезон 1
2014, эпизодов: 52 (1 сентября - 17 ноября 2014)
01. Шарик для друга / Balloon Buddies
02. Сияй, Звезда! / Twinkle Twinkle
03. Приступ Смехожуков / A Case of the Giggles
04. Икота и ночь на природе / Hiccups and Night Fun
05. Неистовая гонка / Rip Roaring Race
06. Охота за семенем / The Need for Seed
07. Без цветов никуда / Colour Me Happy
08. Котята и Шерстята / Kittens and Mittens
09. Суета вокруг хвоста / Tail Tale
10. Сила дружбы / Mirror Mirror
11. Размер Бумера / Boomer Size
12. Лунное несчастье / Mim-Mim's Moon Mishap
13. Ти-Хи-Рекс / Tee Hee Rex
14. Музыкальный мега-инструмент / Mega Music Maker
15. Затерянный остров / Lost Island
16. Полет на цветах / Flight of the Flowers
17. Облачный замок / Cloud Castle
18. Снежный боулинг / Snow Bowling
19. День Святого Валентина / Valentine Friends
20. Окончание сказки / A Storybook Ending
21. Чей запах лучше? / Snifferific
22. Великое путешествие / Summer Funday Drive
23. МегаМим / Mega Mim
24. Катя - волшебница / Kate the Great
25. Большая уборка / Clean Sweep
26. Принцесса Катя / Princess Kate
27. Легче воздуха / Lighter Than Air
28. Талант Габла / Gobble's Gift
29. Рождественские приключения / A Wish for Christmas
30. Рождественские приключения. Часть 2 / A Wish for Christmas. P-2
31. Няни Сквуша / Babysitting Squoosh
32. Снеговик Чилли / Chilly the Snowman
33. Дело Хамелипотама / The Curious Case of the Chamelippoo
34. Подводный пузырь / Bubble Subble
35. Поиски дома дракона / Kate's Dragon Quest
36. Цветы-бабочки / Butterfly Flowers



Доп. информация:
Сэмпл


Файл
Формат: MP4
Качество: WEBRip 720p
Видео: MPEG4-AVC, [email protected], 1280x720 (16:9), ~ 1 564 Kbps, 25.000 fps
Звук: 44.1 KHz, AAC-LC 2.0, 192 Kbps
Субтитры: нет
26. Принцесса Катя. HD-merci-.mp4
Format : MPEG-4
Format profile : Base Media / Version 2
Codec ID : mp42 (isom/mp42)
File size : 139 MiB
Duration : 11mn 2s
Overall bit rate mode : Variable
Overall bit rate : 1 758 Kbps
Encoded date : UTC 2016-02-21 11:56:19
Tagged date : UTC 2016-02-21 11:56:19
gsst : 0
gstd : 662488
Video
ID : 1
Format : AVC
Format/Info : Advanced Video Codec
Format profile : High@L3.1
Format settings, CABAC : Yes
Format settings, ReFrames : 1 frame
Codec ID : avc1
Codec ID/Info : Advanced Video Coding
Duration : 11mn 2s
Bit rate : 1 564 Kbps
Maximum bit rate : 8 762 Kbps
Width : 1 280 pixels
Height : 720 pixels
Display aspect ratio : 16:9
Frame rate mode : Constant
Frame rate : 25.000 fps
Color space : YUV
Chroma subsampling : 4:2:0
Bit depth : 8 bits
Scan type : Progressive
Bits/(Pixel*Frame) : 0.068
Stream size : 124 MiB (89%)
Tagged date : UTC 2016-02-21 11:56:26
Audio
ID : 2
Format : AAC
Format/Info : Advanced Audio Codec
Format profile : LC
Codec ID : 40
Duration : 11mn 2s
Bit rate mode : Variable
Bit rate : 192 Kbps
Maximum bit rate : 201 Kbps
Channel(s) : 2 channels
Channel positions : Front: L R
Sampling rate : 44.1 KHz
Frame rate : 43.066 fps (1024 spf)
Compression mode : Lossy
Stream size : 15.2 MiB (11%)
Title : IsoMedia File Produced by Google, 5-11-2011
Language : unk
Encoded date : UTC 2016-02-21 11:56:24
Tagged date : UTC 2016-02-21 11:56:26


Релиз от: -merci-



   Похожие торренты   Торрент   Размер 
В этой теме нет новых непрочитанных сообщений. Катя и Мим-Мим / Kate and Mim-Mim [01-36 из 52] (2014) WEBRip 720p от -merci- | D

3 | 2

4.64 ГБ

В этой теме нет новых непрочитанных сообщений. Катя и Мим-Мим / Kate and Mim-Mim [01-36 из 52] (2014) WEBRip 720p от -merci- | D

0 | 0

4.52 ГБ

В этой теме нет новых непрочитанных сообщений. Катя и Мим-Мим / Kate and Mim-Mim [01-36 из 52] (2014) WEBRip 720p от -merci- | D

9 | 1

4.19 ГБ

В этой теме нет новых непрочитанных сообщений. Катя и Мим-Мим / Kate and Mim-Mim [01-39 из 52] (2014) WEBRip от -merci- | D

7 | 3

5.38 ГБ

В этой теме нет новых непрочитанных сообщений. Катя и Мим-Мим / Kate and Mim-Mim [01-39 из 52] (2014) WEBRip от -merci- | D

3 | 1

5.12 ГБ

В этой теме нет новых непрочитанных сообщений. Катя и Мим-Мим / Kate and Mim-Mim [01-39 из 52] (2014) WEBRip от -merci- | D

12 | 2

5.91 ГБ

В этой теме нет новых непрочитанных сообщений. Катя и Мим-Мим / Kate and Mim-Mim [01-36 из 52] (2014) WEBRip 1080p от -merci- | D

0 | 129

6.78 ГБ




Вы не можете начинать темы
Вы не можете отвечать на сообщения
Вы не можете редактировать свои сообщения
Вы не можете удалять свои сообщения
Вы не можете добавлять вложения

Перейти:  
Для Мосгорсуда, Роскомнадзора и рекламодателей: mosgorsud-torrent[собачка]yandex.ru
 Вход
ppkBB3cker v.2 © 2008-2014 @ PPK
[ Time : 4.065s | 16 Queries | GZIP : Off ]

cron