img image001 image001 image001 image001 image001 image001 image001 image001 image001 image001 image001 image001 image001 image001 image001

Planets Sun Sun Sun
Статистика раздачи
Автор: Nickolas3434 | Размер: 20.08 ГБ | Добавлен: 13 апр 2016
Раздают: 2    Качают: 0
Скачать торрент
Скачать торрент
Описание торрента

СообщениеДобавлено: 13 апр 2016 

Информация о фильме
Название: Дузеры
Оригинальное название: Doozers
Год выпуска: 2012-2013
Страна: Канада, США, DHX Media, Jim Henson Company
Жанр: мультфильм, комедия, детский, образовательный
Продолжительность: 48 ~ 00:11:19
Перевод: Профессиональный дублированный
Русские субтитры: нет
Режиссёр: Джим Хенсон / Jim Henson
Роли озвучивали: Millie Davis, Trek Buccino, Jacob Ewaniuk, Jenna Warren
Описание: Так кто такие Дузеры? Они зеленые, они милые, они маленькие - ростом всего 3 дюйма, они всегда полны энергии, идей и энтузиазма! Главные герои - команда лучших друзей - маленькие Спайк, Молли, Дэйзи и Флекс, которые очень любят создавать, изобретать и проектировать. Думаете, это скучно? Но какой ребенок не захочет проектировать собственный гоночный автомобиль, летать на реактивном... ранце или строить пряничный домик в натуральную величину? Думаем, ответ очевиден :) Действуй!
01. Редископульта / Project Radish-A-Pult
02. Дузер-Буги / Pod Squad Boogey
03. Погоня за реакзаком / Jets Away
04. Следуя за ароматом / Follow Your Nose
05. Пузыри / Bubbles
06. Мегамагнитомобиль / Mega Magnet Mover
07. Урожайный день / Zip It
08. Новый дом для редиски / Green Thumbs
09. Листопад / Be Leaf It
10. Страшилки-пугалки / Spookypalooza
11. Творческий зуд / An Itch You Can't Scratch
12. Дузер-гонки! / Doozer Derby
13. Танцующий Дуда / Dancing Doodad
14. Плодотворный День / A Doozer of a Dippleplant
15. Мой дом - моё гнездышко! / Home Tweet Home
16. Смешилки / Doozers Amusers
17. Звукопроницательность / Safe from Sound
18. Скользкая ситуация / A Sticky Situation
19. Подарок для Профессор Гимбала / Gift for Gimbal
20. Машинка для Молли / Catch a Ride
21. Маленькие, да удаленькие / Little Feats
22. Художник Флекс / Flex Art
23. Перелетные Бабочки / Butterfly Away
24. Легенда Дузервилля / The Legend of Doozer Creek
25. Загадочный ящик / Mystery Box
26. Дузеры-детективы / Detective Doozers
27. Гонка на дирижаблях / Up Up and Away
28. Анти-икотный спуск / Hiccup-a-Majig
29. Торт-путешественник / Cake Walk
30. Транспортный жук / The Eggcellent
31. Дузербол / Pod Ball
32. Дитсики / Enter the Ditzies
33. Дузерлапузик / Doozermahoozit
34. Дузер-метро / Trouble Below
35. Танцы на льду / Daisy Wheel on Ice
36. Имбирный домик / The Gingerbread House
37. Первопроходцы / Mapping Quest
38. Приключение в пустыне / Dune Buddies
39. Звезды сцены / Big Stars
40. Солнце в темном тоннеле / Light Where It's Dark
41. Павильон дуз-команды / The Pod Squad Pavillion
42. Парад Дузеров / Doozers on Parade
43. Новая жизнь для каски / Doozers Re-Users
44. Энергия ветра / It's a Breeze
45. Конкурс изобретений / Three's a Team
46. Небесная башня / Sky High Doozers
47. Чудо ветер / A Windy Wonder
48. Сэндвичи для дузеров / Short Order



Доп. информация:
Семпл / Официальный сайт


Файл
Формат: MKV
Качество: WEB-DL 1080p
Видео: MPEG4-AVC, [email protected], 1920x1080 (16:9), 25,000 fps, ~4 884 kbps
Аудио: 48 kHz, AC3 Dolby Digital, 2/0 (L,R) ch, ~192.00 kbps
Субтитры: отсутствуют
10. Страшилки-пугалки. WEB-DL.1080p.-merci-.mkv
Format : Matroska
Format version : Version 2
File size : 420 MiB
Duration : 11mn 19s
Overall bit rate : 5 180 Kbps
Movie name : Дузеры / Doozers / Канада, США /
Encoded date : UTC 2015-09-15 13:53:24
Writing application : mkvmerge v5.8.0 ('No Sleep / Pillow') built on Sep 2 2012 15:37:04
Writing library : libebml v1.2.3 + libmatroska v1.3.0
Video
ID : 1
Format : AVC
Format/Info : Advanced Video Codec
Format profile : High@L4
Format settings, CABAC : Yes
Format settings, ReFrames : 2 frames
Codec ID : V_MPEG4/ISO/AVC
Duration : 11mn 19s
Bit rate : 4 884 Kbps
Width : 1 920 pixels
Height : 1 080 pixels
Display aspect ratio : 16:9
Frame rate mode : Constant
Frame rate : 25.000 fps
Color space : YUV
Chroma subsampling : 4:2:0
Bit depth : 8 bits
Scan type : Progressive
Bits/(Pixel*Frame) : 0.094
Stream size : 396 MiB (94%)
Title : 10. Страшилки-пугалки. WEB-DL.1080p.x264.-merci-
Language : English
Default : Yes
Forced : No
Color range : Limited
Color primaries : BT.709
Transfer characteristics : BT.709
Matrix coefficients : BT.709
Audio
ID : 2
Format : AC-3
Format/Info : Audio Coding 3
Mode extension : CM (complete main)
Format settings, Endianness : Big
Codec ID : A_AC3
Duration : 11mn 19s
Bit rate mode : Constant
Bit rate : 192 Kbps
Channel(s) : 2 channels
Channel positions : Front: L R
Sampling rate : 48.0 KHz
Compression mode : Lossy
Stream size : 15.6 MiB (4%)
Title : Dub
Language : Russian
Default : Yes
Forced : No


Релиз от: -merci-



   Похожие торренты   Торрент   Размер 
В этой теме нет новых непрочитанных сообщений. Дузеры / Doozers [01x01-37, 41-44 из 52] (2012-2013) WEB-DL 1080p от -merci- | D

12 | 10

16.82 ГБ

В этой теме нет новых непрочитанных сообщений. Дузеры / Doozers [01x01-48 из 52] (2012-2013) WEB-DL 1080p от -merci- | D

3 | 6

19.67 ГБ

В этой теме нет новых непрочитанных сообщений. Дузеры / Doozers [01x01-46 из 52] (2012-2013) WEB-DL 1080p от -merci- | D

8 | 5

18.85 ГБ

В этой теме нет новых непрочитанных сообщений. Дузеры / Doozers [01x01-45 из 52] (2012-2013) WEB-DL 1080p от -merci- | D

15 | 28

18.46 ГБ

В этой теме нет новых непрочитанных сообщений. Дузеры / Doozers [01x01-39, 41-45 из 52] (2012-2013) WEB-DL 1080p от -merci- | D

18 | 8

18.05 ГБ

В этой теме нет новых непрочитанных сообщений. Дузеры / Doozers [01x01-18 из 52] (2012-2013) WEB-DLRip от New-Team | D

212 | 3

2.85 ГБ

В этой теме нет новых непрочитанных сообщений. Жила-была царевна (01x01-05 + Бонусы) (2013) WEB-DL 1080p от -merci-

579 | 18

1.37 ГБ




Вы не можете начинать темы
Вы не можете отвечать на сообщения
Вы не можете редактировать свои сообщения
Вы не можете удалять свои сообщения
Вы не можете добавлять вложения

Перейти:  
Для Мосгорсуда, Роскомнадзора и рекламодателей: mosgorsud-torrent[собачка]yandex.ru
 Вход
ppkBB3cker v.2 © 2008-2014 @ PPK
[ Time : 0.040s | 15 Queries | GZIP : Off ]

Торрент трекер RUTOR.IN, Не можете зайти на rutor.org? Какой новый адрес рутор? Какое зеркало рутор? Не работает rutor.org и зеркала? Тогда наш торрент специально для вас. Rutor.in неофициальное зеркало rutor. В случае если у Вас заблокирован rutor или вдруг Вы не можете на него зайти, то Вы без труда сможете скачать бесплатно и без рекламы последние новинки кино, игр, сериалов и прочего у нас, на Rutor.in. Не нужно использовать прокси, чтобы зайти на рутор, достаточно воспользоваться нашим ресурсом. Все новые фильмы, игры, сериалы, книги и музыка за 2013 и 2014 годы через торрент бесплатно. Скачивайте фильмы в хорошем качестве, игры для пк, xbox, playstation без регистрации. У нас вы найдете новые Зарубежные сериалы и Русские сериалы 2013, 2014, 2015 годов. Оставайтесь с нами, качайте любимые фильмы, игры, сериалы, книги и музыку.