img image001 image001 image001 image001 image001 image001 image001 image001 image001 image001 image001 image001 image001 image001 image001

Planets Sun Sun Sun
Статистика раздачи
Автор: Nickolas3434 | Размер: 526.96 МБ | Добавлен: 13 апр 2016
Раздают: 257    Качают: 8
Скачать торрент
Скачать торрент
Описание торрента

СообщениеДобавлено: 13 апр 2016 

Информация о фильме
Название: Профессор Почемушкин
Год выхода: 2013
Страна: Россия, ООО «Эффект-Фильм»
Жанр: Мультсериал, детский, развивающий, обучающий
Продолжительность: 40 х ~ 00:01:10
Перевод: не требуется
Режиссер: Елена Маленкина
О фильме:
Профессор Почемушкин - это не взрослый дядька с заумными рассуждениями, а семилетний мальчик Серёжа. Профессором его прозвали родители за его любопытство и стремление к познанию всего нового. Он даст ответы на любые вопросы Вашего ребёнка. Почему в ракушке шумит море? Откуда семечко знает, куда ему расти? Кто зажигает звёзды? Вам, наверное, знакомы такие вопросы? Благодаря этому новому мультсериалу, ребёнок получит ответы на все свои вопросы.
01. Зачем слону хобот
02. Почему у жирафа длинная шея
03. Почему в ракушках слышится шум моря
04. Почему пони такие маленькие
05. Какого цвета хамелеон
06. Почему гром всегда гремит после вспышки молнии
07. Почему у кошек в темноте глаза светятся
08. Если продырявить Землю насквозь, можно ли оказаться на другой стороне
09. Зачем пчёлам мёд
10. Почему звезды падают
11. Откуда семечко знает, куда ему расти
12. Зачем деревьям кольца
13. Почему листья желтеют
14. Почему шахматного ферзя называют королевой
15. Почему стрелка компаса всегда указывает на север
16. Сколько нужно времени, чтобы добраться от Земли до Луны
17. Можно ли измерить окружность Земли
18. Кто придумал мыльные пузыри
19. Как и когда появилась первая бумага
20. Что такое радуга
21. Для чего нужны скворечники
22. Почему грибы бывают ядовитыми
23. Зачем нужны муравейники
24. Почему от сладкого портятся зубы
25. Почему вода в море соленая
26. Почему попугаи разговаривают
27. Зачем Белка и Стрелка летали в космос
28. Почему зебра полосатая
29. Почему арбуз называют ягодой
30. Сколько живут черепахи
31. Почему страус прячет голову в песок
32. Что значит выражение Быть не в своей тарелке
33. Почему Биг Бэн так называется
34. Кто придумал Олимпийские игры
35. Почему доллары называют баксы
36. Кто придумал первые деньги
37. Зачем нужен помпон на шапке
38. Почему пожарные ведра конической формы
39. Почему обозначением неизвестного служит буква Икс
40. Где находится Тридевятое царство



Доп. информация:
Официальный сайт / Семпл


Файл
Формат: MP4
Качество: WEB-DL 720p
Видео: MPEG4-AVC, High@L3.1, 1280x720 (16:9), ~ 2 391 Kbps, 25.000 fps
Звук: 44.1 KHz, AAC-LC 2.0, 192 Kbps
Субтитры: нет
28. Почему зебра полосатая. HD-merci-.mp4
Format : MPEG-4
Format profile : Base Media / Version 2
Codec ID : mp42 (isom/mp42)
File size : 20.9 MiB
Duration : 1mn 7s
Overall bit rate mode : Variable
Overall bit rate : 2 585 Kbps
Encoded date : UTC 2014-04-15 04:39:13
Tagged date : UTC 2014-04-15 04:39:13
gsst : 0
gstd : 67778
gssd : BADC23AC4HH1403805499306354
gshh : r4---sn-n8v7lnel.googlevideo.com
Video
ID : 1
Format : AVC
Format/Info : Advanced Video Codec
Format profile : High@L3.1
Format settings, CABAC : Yes
Format settings, ReFrames : 1 frame
Format settings, GOP : M=1, N=60
Codec ID : avc1
Codec ID/Info : Advanced Video Coding
Duration : 1mn 7s
Bit rate : 2 391 Kbps
Maximum bit rate : 6 248 Kbps
Width : 1 280 pixels
Height : 720 pixels
Display aspect ratio : 16:9
Frame rate mode : Constant
Frame rate : 25.000 fps
Color space : YUV
Chroma subsampling : 4:2:0
Bit depth : 8 bits
Scan type : Progressive
Bits/(Pixel*Frame) : 0.104
Stream size : 19.3 MiB (92%)
Tagged date : UTC 2014-04-15 04:39:14
Audio
ID : 2
Format : AAC
Format/Info : Advanced Audio Codec
Format profile : LC
Codec ID : 40
Duration : 1mn 7s
Bit rate mode : Variable
Bit rate : 192 Kbps
Maximum bit rate : 201 Kbps
Channel(s) : 2 channels
Channel positions : Front: L R
Sampling rate : 44.1 KHz
Frame rate : 43.066 fps (1024 spf)
Compression mode : Lossy
Stream size : 1.55 MiB (7%)
Title : IsoMedia File Produced by Google, 5-11-2011
Encoded date : UTC 2014-04-15 04:39:14
Tagged date : UTC 2014-04-15 04:39:14


Релиз от: -merci-



   Похожие торренты   Торрент   Размер 
В этой теме нет новых непрочитанных сообщений. Профессор Почемушкин [01-50 из ?] (2013-2016) WEB-DLRip 720p от ExKinoRay

93 | 30

657.98 МБ

В этой теме нет новых непрочитанных сообщений. Профессор Почемушкин [01-30] (2013) WEB-DLRip-AVC

255 | 12

654.95 МБ

В этой теме нет новых непрочитанных сообщений. Профессор Почемушкин [01-30 из ?] (2013) WEB-DLRip от New-Team

302 | 22

425.34 МБ

В этой теме нет новых непрочитанных сообщений. Тадеуш Доленга-Мостович – Профессор Вильчур 02. Профессор Вильчур (2015) MP3

27 | 5

565.49 МБ

В этой теме нет новых непрочитанных сообщений. Мадмуазель Зази / Mademoiselle Zazie [S01] (2013) WEB-DL 720p от -merci- | D

6 | 1

16.1 ГБ

В этой теме нет новых непрочитанных сообщений. Жила-была царевна (01x01-05 + Бонусы) (2013) WEB-DL 720p от -merci-

260 | 14

1.04 ГБ

В этой теме нет новых непрочитанных сообщений. Чокнутый профессор / The Nutty Professor (1996) BDRip 720p от MediaClub | P, P2, A

31 | 32

7.02 ГБ




Вы не можете начинать темы
Вы не можете отвечать на сообщения
Вы не можете редактировать свои сообщения
Вы не можете удалять свои сообщения
Вы не можете добавлять вложения

Перейти:  
Для Мосгорсуда, Роскомнадзора и рекламодателей: mosgorsud-torrent[собачка]yandex.ru
 Вход
ppkBB3cker v.2 © 2008-2014 @ PPK
[ Time : 0.032s | 15 Queries | GZIP : Off ]

Торрент трекер RUTOR.IN, Не можете зайти на rutor.org? Какой новый адрес рутор? Какое зеркало рутор? Не работает rutor.org и зеркала? Тогда наш торрент специально для вас. Rutor.in неофициальное зеркало rutor. В случае если у Вас заблокирован rutor или вдруг Вы не можете на него зайти, то Вы без труда сможете скачать бесплатно и без рекламы последние новинки кино, игр, сериалов и прочего у нас, на Rutor.in. Не нужно использовать прокси, чтобы зайти на рутор, достаточно воспользоваться нашим ресурсом. Все новые фильмы, игры, сериалы, книги и музыка за 2013 и 2014 годы через торрент бесплатно. Скачивайте фильмы в хорошем качестве, игры для пк, xbox, playstation без регистрации. У нас вы найдете новые Зарубежные сериалы и Русские сериалы 2013, 2014, 2015 годов. Оставайтесь с нами, качайте любимые фильмы, игры, сериалы, книги и музыку.