img image001 image001 image001 image001 image001 image001 image001 image001 image001 image001 image001 image001 image001 image001 image001

Planets Sun Sun Sun
Статистика раздачи
Автор: Nickolas3434 | Размер: 8.74 ГБ | Добавлен: 16 апр 2016
Раздают: 28    Качают: 8
Скачать торрент
Скачать торрент
Описание торрента

СообщениеДобавлено: 16 апр 2016 

Информация о фильме
Название: Паровозик Тишка
Год выхода: 2012-2015
Страна: Россия / AA Studio
Жанр: мультфильм, комедия, приключения
Продолжительность: 97 x ~ 00:05:31
Перевод: не требуется
Режиссеры: Денис Червяцов, Святослав Ушаков, Алексей Котеночкин
В ролях: Константин Хабенский, Анна Михалкова, Армен Джигарханян, Даниил Эльдаров, ...
О фильме:
В далеком красочном городе обитают самые настоящие живые паровозы. Кроме взрослых составов, ежедневно уезжающих на работу, есть и самые маленькие, среди которых наши главные герои — паровозик Тишка и его друзья. С ними вечно случается что-то забавное, вместе узнают, стоит ли верить в чудеса, что важнее, победа или дружба и нужно ли бояться пробовать что-то новое.
s1e01. Чего хотят женщины
s1e02. Лучший помощник
s1e03. Любит, не любит
s1e04. Подвиг неизвестного героя
s1e05. Загадочная коробка
s1e06. Ловушка для индейцев (2012)
s1e07. Музыкальный талант
s1e08. Розовый город
s1e09. Папины документы
s1e10. Ловись, рыбка
s1e11. Снежная крепость
s1e12. Уличные художества
s1e13. Невезучая астрономия
s1e14. Робинзон
s1e15. Только ради дружбы
s1e16. Компас
s1e17. Знание - сила
s1e18. Засуха
s1e19. Фестиваль фонариков
s1e20. НЛО
s1e21. ТелеТишка
s1e22. Дикая дрезина
s1e23. День без родителей
s1e24. Похищение
s1e25. Клад
s1e26. Находчивость Тишки
s1e27. Женский день
s1e28. Тишкины правила
s1e29. Жизнь в розовом цвете
s1e30. Сон
s1e31. Дерево желаний
s1e32. Лучший подарок
s1e33. Чего боится страх
s1e34. Поэзия
s1e35. Кто быстрее
s1e36. Василич не хочет дружить
s1e37. Букет для Эльки
s1e38. Клякса
s1e39. Невезучий день
s1e40. Секреты от друзей
s1e41. Разрушители мифов
s1e42. Команда
s1e43. Самый лучший цирк
s1e44. Кино
s1e45. Невезуха
s2e01. Хороший пример
s2e02. Модернизация
s2e03. Бесстрашный герой
s2e04. Магнит
s2e05. Паром
s2e06. С новым годом! 1080p
s2e07. Подводный мир
s2e08. Путешествие на Луну
s2e09. Башмаки для чемпионов
s2e10. Секрет Красоты
s2e11. Пираты южных морей
s2e12. Новый вратарь
s2e13. Георгий 2000
s2e14. Новая высота
s2e15. Жара
s2e16. Красота - страшная сила
s2e17. Хороший пример
s2e18. Техника опасности
s2e19. Ночь привидений
s2e20. Три мушкетера
s2e21. Вести Паровозовска
s2e22. Полная Луна
s2e23. Изобретение
s2e24. По правилам
s2e25. Глупые приметы
s2e26. Пять минут
s2e27. Смелый поступок
s2e28. Лучшая Ёлка
s2e29. Время с пользой
s2e30. Путешествие на Марс
s2e31. Волшебное дерево
s2e32. Самый мощный паровозик
s2e33. Сказка
s2e34. Комета
s2e35. Зимний день
s2e36. Полигон
s2e37. Настоящий талант
s2e38. Летающие паровозики
s2e39. Первобытные времена
s2e40. Ночь в музее
s2e41. В поисках снежной дрезины
s2e42. Дерево
s2e43. Сказка о трехглавом драконе
s2e44. Гений
s2e45. Волшебное дерево
s2e46. Самые точные часы
s2e47. Главная роль
s2e48. Мечты
s2e49. Кто потерял шарик
s3e01 Кубок Чемпиона (2015)
s3e02. Стихийное бедствие (2015)
s3e03. Остров Сокровищ (2015)



Доп. информация:
Семпл


Файл
Формат: MP4
Качество: WEB-DL 720p
Видео: MPEG4-AVC, [email protected], 1280x720 (16:9), ~ 2 682 Kbps, 25.000 fps
Звук: 44.1 KHz, AAC-LC 2.0, 192 Kbps
Субтитры: нет
s2e23. Изобретение. 720p.-merci-.mp4
Format : MPEG-4
Format profile : Base Media / Version 2
Codec ID : mp42 (isom/mp42)
File size : 113 MiB
Duration : 5mn 29s
Overall bit rate mode : Variable
Overall bit rate : 2 876 Kbps
Encoded date : UTC 2014-09-03 11:43:26
Tagged date : UTC 2014-09-03 11:43:26
gsst : 0
gstd : 329908
gssd : BBC2B40C5HH1410692977285991
gshh : r2---sn-ug5onuxaxjvh-v8ce.googlevideo.com
Video
ID : 1
Format : AVC
Format/Info : Advanced Video Codec
Format profile : High@L3.1
Format settings, CABAC : Yes
Format settings, ReFrames : 1 frame
Codec ID : avc1
Codec ID/Info : Advanced Video Coding
Duration : 5mn 29s
Bit rate : 2 682 Kbps
Maximum bit rate : 9 080 Kbps
Width : 1 280 pixels
Height : 720 pixels
Display aspect ratio : 16:9
Frame rate mode : Constant
Frame rate : 25.000 fps
Color space : YUV
Chroma subsampling : 4:2:0
Bit depth : 8 bits
Scan type : Progressive
Bits/(Pixel*Frame) : 0.116
Stream size : 105 MiB (93%)
Tagged date : UTC 2014-09-03 11:43:27
Audio
ID : 2
Format : AAC
Format/Info : Advanced Audio Codec
Format profile : LC
Codec ID : 40
Duration : 5mn 29s
Bit rate mode : Variable
Bit rate : 192 Kbps
Maximum bit rate : 201 Kbps
Channel(s) : 2 channels
Channel positions : Front: L R
Sampling rate : 44.1 KHz
Frame rate : 43.066 fps (1024 spf)
Compression mode : Lossy
Stream size : 7.55 MiB (7%)
Title : IsoMedia File Produced by Google, 5-11-2011
Encoded date : UTC 2014-09-03 11:43:27
Tagged date : UTC 2014-09-03 11:43:27


Релиз от: -merci-



   Похожие торренты   Торрент   Размер 
В этой теме нет новых непрочитанных сообщений. Паровозик Тишка [01-97 из ?] (2012-2015) WEB-DL 720p от -merci-

14 | 33

8.15 ГБ

В этой теме нет новых непрочитанных сообщений. Паровозик Тишка [01-97 из ?] (2012-2015) WEB-DL 1080p от -merci-

34 | 13

10.84 ГБ

В этой теме нет новых непрочитанных сообщений. Паровозик Тишка [01-97 из ?] (2012-2015) WEB-DLRip от -merci-

49 | 5

6.67 ГБ

В этой теме нет новых непрочитанных сообщений. Паровозик Тишка [01-97 из ?] (2012-2015) WEB-DL 1080p от -merci-

14 | 10

11.54 ГБ

В этой теме нет новых непрочитанных сообщений. Паровозик Тишка [01-97 из ?] (2012-2015) WEB-DLRip от -merci-

146 | 43

7.14 ГБ

В этой теме нет новых непрочитанных сообщений. Тишка паровозик [01-19] (2012) SatRip

9 | 3

1.54 ГБ

В этой теме нет новых непрочитанных сообщений. Тишка паровозик [01-37] (2012) SATRip

55 | 5

3.02 ГБ




Вы не можете начинать темы
Вы не можете отвечать на сообщения
Вы не можете редактировать свои сообщения
Вы не можете удалять свои сообщения
Вы не можете добавлять вложения

Перейти:  
Для Мосгорсуда, Роскомнадзора и рекламодателей: mosgorsud-torrent[собачка]yandex.ru
 Вход
ppkBB3cker v.2 © 2008-2014 @ PPK
[ Time : 0.084s | 17 Queries | GZIP : Off ]

Торрент трекер RUTOR.IN, Не можете зайти на rutor.org? Какой новый адрес рутор? Какое зеркало рутор? Не работает rutor.org и зеркала? Тогда наш торрент специально для вас. Rutor.in неофициальное зеркало rutor. В случае если у Вас заблокирован rutor или вдруг Вы не можете на него зайти, то Вы без труда сможете скачать бесплатно и без рекламы последние новинки кино, игр, сериалов и прочего у нас, на Rutor.in. Не нужно использовать прокси, чтобы зайти на рутор, достаточно воспользоваться нашим ресурсом. Все новые фильмы, игры, сериалы, книги и музыка за 2013 и 2014 годы через торрент бесплатно. Скачивайте фильмы в хорошем качестве, игры для пк, xbox, playstation без регистрации. У нас вы найдете новые Зарубежные сериалы и Русские сериалы 2013, 2014, 2015 годов. Оставайтесь с нами, качайте любимые фильмы, игры, сериалы, книги и музыку.