img image001 image001 image001 image001 image001 image001 image001 image001 image001 image001 image001 image001 image001 image001 image001

Planets Sun Sun Sun
Статистика раздачи
Автор: Nickolas3434 | Размер: 12.21 ГБ | Добавлен: 17 апр 2016
Раздают: 7    Качают: 7
Скачать торрент
Скачать торрент
Описание торрента

СообщениеДобавлено: 17 апр 2016 

Информация о фильме
Название: Леонардо + Леонардо 3D Экспо
Оригинальное название: Leonardo + Leonardo 3D Expo
Год выхода: 2009-2015
Страна: Италия, Rai Fiction, Gruppo Alcuni, DQ Entertainment
Жанр: Мультсериал, приключения, детский, семейный
Продолжительность: 52 х ~ 00:13:02, 13 х ~ 00:05:05
Перевод: Профессиональный дублированный (канал СТС)
Режиссеры: Серджо Манфио, Франческо Манфио
Роли озвучивали: Джейн Алан, Барбара Гудсон, Юкиджи, Юми Тоума, Марлен Шарп, Р. Мартин Клейн, Грег Берг, Ричард Кансино, Тифани Кристун, Брайан Донован
О фильме:
Увлекательный детский мультик «Леонардо» поведает о великом изобретателе юного возраста по имени Леонардо. Действие происходит в конце пятнадцатого века, в то время, когда еще не было всех привилегий жизни, доступных в наше время. Так что, юному дарованию и фантазеру не раз пришлось применить свой изобретательский талант, прославив свое имя на века. У Леонардо также есть его закадычные друзья - Лоренцо, Джоконда, брат с сестрой, необычные (говорящий кот Падо и деревянный робот Тилио), которые вдохновляют юного гения на великие свершения. Ребят ждет множество приключений и порой не без трудностей, так как дети местного богача постоянно вставляют им палки в колеса, прибегая к магии. Однако, ребята смогут общими усилиями противостоять проказникам.
Леонардо - 1 сезон:
01. Поиски сокровища
02. Черепаха
03. Пещера дракона
04. Ход конём
05. Чудо-ласты
06. Средневековая олимпиада
07. Летняя жара
08. Живопись
09. Чудище из озера
10. В жерле вулкана
11. Аквапарк
12. На охоте
13. Конкурс cнежных фигур
14. Праздник весны
15. Большой прыжок
16. Сокровище в башне
17. День рождения Джоконды
18. Игра с дамами из замка
19. Волшебный плащ
20. Волшебный лес
21. Да здравствует театр
22. Эстафета в лесу
23. Мышиные крылья
24. Завещание рыцаря
25. Цветок тыквы
26. На краю водопада
Леонардо - 2 сезон:
01. Заброшенный монастырь
02. Первый ключ
03. Мужчина в сапогах
04. Краски и мази
05. Розовый краб
06. Усталый звонарь
07. Полет Тиглио
08. Пряжка
09. Пробковый шар
10. Стеклянный глаз
11. Продырявленная раковина
12. Дракон
13. Красная книга
14. Черный оникс
15. Говорящий камень
16. Железный серп
17. Ослиная подкова
18. Каменная голубка
19. Катапульта
20. Сломанные очки
21. Бабочки
22. Второй свисток
23. Волшебный дым
24. Три пера
25. Оливковое дерево
26. Тайна раскрыта
Леонардо 3D Экспо:
01. Два хвоста
02. Машина для кексов
03. Соревнования по тортам
04. Конкурс поваров
05. Замок на складе
06. Аквапарк
07. Перевернутый зонтик
08. Не шутите с водой
09. Плита на солнечных батареях
10. Гонки повозок
11. Ярмарка цветов
12. Плохое приключение
13. Велосипед под парусом



Доп. информация:
Официальный сайт / Семпл


Файл
Формат: MP4
Качество: WEB-DL 1080p
Видео: MPEG4-AVC, High@L4, 1920x1080 (16:9), ~ 2 814 Kbps, 25.000 fps
Звук: 44.1 KHz, AAC-LC 2.0, 192 Kbps
Субтитры: нет
s2e20. Сломанные очки. W-1080p-merci-.mp4
Format : MPEG-4
Format profile : Base Media
Codec ID : isom (isom)
File size : 281 MiB
Duration : 13mn 2s
Overall bit rate mode : Variable
Overall bit rate : 3 009 Kbps
Encoded date : UTC 2016-04-11 13:35:26
Tagged date : UTC 2016-04-11 13:35:26
Writing application : My MP4Box GUI 0.6.0.6
Video
ID : 1
Format : AVC
Format/Info : Advanced Video Codec
Format profile : High@L4
Format settings, CABAC : Yes
Format settings, ReFrames : 2 frames
Codec ID : avc1
Codec ID/Info : Advanced Video Coding
Duration : 13mn 2s
Bit rate : 2 814 Kbps
Maximum bit rate : 10.5 Mbps
Width : 1 920 pixels
Height : 1 080 pixels
Display aspect ratio : 16:9
Frame rate mode : Constant
Frame rate : 25.000 fps
Color space : YUV
Chroma subsampling : 4:2:0
Bit depth : 8 bits
Scan type : Progressive
Bits/(Pixel*Frame) : 0.054
Stream size : 263 MiB (94%)
Title : s2e20-1080.mp4
Encoded date : UTC 2015-10-17 15:08:16
Tagged date : UTC 2016-04-11 13:35:34
Audio
ID : 2
Format : AAC
Format/Info : Advanced Audio Codec
Format profile : LC
Codec ID : 40
Duration : 13mn 2s
Bit rate mode : Variable
Bit rate : 192 Kbps
Maximum bit rate : 202 Kbps
Channel(s) : 2 channels
Channel positions : Front: L R
Sampling rate : 44.1 KHz
Frame rate : 43.066 fps (1024 spf)
Compression mode : Lossy
Stream size : 17.9 MiB (6%)
Title : s2e20-ru.aac
Encoded date : UTC 2016-04-11 13:35:34
Tagged date : UTC 2016-04-11 13:35:34


Релиз от: -merci-



   Похожие торренты   Торрент   Размер 
В этой теме нет новых непрочитанных сообщений. Леонардо (+ 3D Экспо) / Leonardo [s01,s02] +3D Expo [s01] (2009-2015) WEB-DL 720p от -merci- | D

39 | 9

8.86 ГБ

В этой теме нет новых непрочитанных сообщений. Леонардо (+ 3D Экспо) / Leonardo [s01,s02] +3D Expo [s01] (2009-2015) WEB-DLRip-AVC от -merci- | D

21 | 6

3.95 ГБ

В этой теме нет новых непрочитанных сообщений. Леонардо / Leonardo (1993) WEBRip

16 | 3

1010.54 МБ

В этой теме нет новых непрочитанных сообщений. Леонардо / Leonardo (1993) SATRip от RG MixTorrent | D

0 | 3

1.25 ГБ

В этой теме нет новых непрочитанных сообщений. Жизнь Леонардо Да Винчи / La vita di Leonardo Da Vinci (1971) DVDRip

22 | 3

3.95 ГБ

В этой теме нет новых непрочитанных сообщений. Жизнь Леонардо Да Винчи / La vita di Leonardo Da Vinci (1971) 2x DVD9

0 | 11

15 ГБ

В этой теме нет новых непрочитанных сообщений. ВВС: Леонардо Да Винчи. Я хочу сделать чудо / Leonardo da Vinci (2003) DVDRip

97 | 6

1.37 ГБ




Вы не можете начинать темы
Вы не можете отвечать на сообщения
Вы не можете редактировать свои сообщения
Вы не можете удалять свои сообщения
Вы не можете добавлять вложения

Перейти:  
Для Мосгорсуда, Роскомнадзора и рекламодателей: mosgorsud-torrent[собачка]yandex.ru
 Вход
ppkBB3cker v.2 © 2008-2014 @ PPK
[ Time : 0.056s | 15 Queries | GZIP : Off ]

Торрент трекер RUTOR.IN, Не можете зайти на rutor.org? Какой новый адрес рутор? Какое зеркало рутор? Не работает rutor.org и зеркала? Тогда наш торрент специально для вас. Rutor.in неофициальное зеркало rutor. В случае если у Вас заблокирован rutor или вдруг Вы не можете на него зайти, то Вы без труда сможете скачать бесплатно и без рекламы последние новинки кино, игр, сериалов и прочего у нас, на Rutor.in. Не нужно использовать прокси, чтобы зайти на рутор, достаточно воспользоваться нашим ресурсом. Все новые фильмы, игры, сериалы, книги и музыка за 2013 и 2014 годы через торрент бесплатно. Скачивайте фильмы в хорошем качестве, игры для пк, xbox, playstation без регистрации. У нас вы найдете новые Зарубежные сериалы и Русские сериалы 2013, 2014, 2015 годов. Оставайтесь с нами, качайте любимые фильмы, игры, сериалы, книги и музыку.