img image001 image001 image001 image001 image001 image001 image001 image001 image001 image001 image001 image001 image001 image001 image001

Planets Sun Sun Sun
Статистика раздачи
Автор: Nickolas3434 | Размер: 8.07 ГБ | Добавлен: 20 апр 2016
Раздают: 227    Качают: 12
Скачать торрент
Скачать торрент
Описание торрента

СообщениеДобавлено: 20 апр 2016 




Снежная королева 2: Перезаморозка
The Snow Queen: Magic Of The Ice Mirror



Год выпуска: 2014
Страна: Россия (Базелевс Продакшн, Wizart Animation, Ascot Elite Entertainment Group, Cinema Fund Russia)
Жанр: Мультфильм, Фэнтези, Приключения, Семейный
Продолжительность: 01:18:50
Перевод: Профессиональный дублированный - iTunes
Режиссер: Алексей Цицилин
Продюсер: Тимур Бекмамбетов


озвучивали (дублировали на английском):
............


............| ............| ............| ............ ............| ............
Орм - (Sharlto Copley)
Герда - Анна Шурочкина (Нюша) (Bella Thorne)
Принцесса Марибель - Анна Хилькевич (Sara Cravens)
Рахат - Александр Уман (Шура Би-2) (Pat Fraley)
Лукум - Игорь Бортник (Лёва Би-2) (Bill Chott)
Охранник - Алексей Лихницкий (JB Blanc)
Охранник - Роман Юнусов
Глашатай - Александр Гудков
Начальник шахты - Михаил Тихонов
Абрам - Диомид Виноградов
Бабушка Орма - Ольга Зубкова (Candi Milo)
Король троллей - Федор Добронравов (Jeff Bennett)
Генерал Аррог - (Sean Bean)
Кай - Рамиля Искандер
Альфида - Валерия Николаева (Isabelle Fuhrman)



Описание: Тщеславный тролль Орм давно мечтает о лаврах героя, и наконец получает этот шанс: северный ветер грозит миру вечной зимой и похищает Марибель. Рука принцессы и королевство троллей достанутся тому, кто вызволит ее из снежного плена. Однажды Орм победил зиму с помощью друзей, теперь он хочет действовать в одиночку. На нем доспехи из сковородок, за ним — отряд трусливых троллей, а впереди — опасный путь к замку Снежной королевы. Но, к счастью, друзья не помнят обид: храбрая Герда, застенчивый Кай, удалая Альфида и весёлая Лута не бросят Орма в беде. А значит их ждут невероятные приключения!
Для производства этого мультфильма понадобилось бы 997 лет, если бы его делали на одном компьютере.
Для всех материалов и обсчета спецэффектов мультфильма понадобился сервер в 200 терабайт.
На теле главного героя мультика — тролля Орма — 2 343 997 волосинок. Аррог менее «волосат» — у него всего лишь 1 311 143 волосинок.
Персонаж «Северный ветер» состоит из 80 миллионов частиц.
[*]Самая трудоемкая сцена в фильме — это выныривание рыбы из водопада. Для ее создания потребовалось 25 слоев эффектов. На тесты и производство этой сцены ушло 3 недели.

Премьера: 12 декабря 2014 (1 января 2015)
Релиз на DVD (Россия): 17 февраля 2015
Кассовые сборы (Россия): $6 038 637





Качество: BDRip (by Ash61 from BD 3D Ger)
Контейнер: MKV
Формат 3D: Half OverUnder / Вертикальная анаморфная стереопара
Порядок ракурсов: левый ракурс первый


Видео: AVC / 23,976 fps / 1920х1080p / 13.3 Mbps
Аудио:
#1 - Русский / AC3 / 48 KHz / 5.1 ch / 384 Kbps (Оригинал - iTunes)
#2 - Английский / AC3 / 48 KHz / 5.1 ch / 640 Kbps (Dubbing - BD 3D Ger)
Субтитры (SRT):
Вшитые (softsub):
#1 - Русские Форсированные (включены по умолчанию)
Внешние (UTF-8):
#1 - Русские Форсированные (включены по умолчанию)
General
Unique ID : 236510740871865830506429380934913057536 (0xB1EE4FD2380060599110764372396300)
Complete name : E:TheSnowQueen2(2014)3D-halfOU(Ash61)iTunesTheSnowQueen2(2014)3D-halfOU(Ash61)iTunes.mkv
Format : Matroska
Format version : Version 2
File size : 8.07 GiB
Duration : 1h 18mn
Overall bit rate : 14.7 Mbps
Movie name : Снежная королева 2: Перезаморозка / The Snow Queen: Magic Of The Ice Mirror (2014) в 3Д
Encoded date : UTC 2016-04-19 15:01:19
Writing application : mkvmerge v5.8.0 ('No Sleep / Pillow') built on Sep 2 2012 15:37:04
Writing library : libebml v1.2.3 + libmatroska v1.3.0
Video
ID : 1
Format : AVC
Format/Info : Advanced Video Codec
Format profile : High@L4.1
Format settings, CABAC : Yes
Format settings, ReFrames : 4 frames
Codec ID : V_MPEG4/ISO/AVC
Duration : 1h 18mn
Bit rate : 13.3 Mbps
Width : 1 920 pixels
Height : 1 080 pixels
Display aspect ratio : 16:9
Frame rate mode : Constant
Frame rate : 23.976 fps
Color space : YUV
Chroma subsampling : 4:2:0
Bit depth : 8 bits
Scan type : Progressive
Bits/(Pixel*Frame) : 0.268
Stream size : 7.35 GiB (91%)
Title : BDRip by Ash61 (from BD 3D Ger)
Writing library : x264 core 146 r2538 121396c
Encoding settings : cabac=1 / ref=4 / deblock=1:-3:-3 / analyse=0x3:0x113 / me=umh / subme=10 / psy=1 / psy_rd=1.00:0.00 / mixed_ref=1 / me_range=32 / chroma_me=1 / trellis=2 / 8x8dct=1 / cqm=0 / deadzone=21,11 / fast_pskip=1 / chroma_qp_offset=-2 / threads=12 / lookahead_threads=3 / sliced_threads=0 / nr=0 / decimate=1 / interlaced=0 / bluray_compat=0 / constrained_intra=0 / bframes=12 / b_pyramid=2 / b_adapt=2 / b_bias=0 / direct=3 / weightb=1 / open_gop=0 / weightp=2 / keyint=250 / keyint_min=23 / scenecut=40 / intra_refresh=0 / rc_lookahead=60 / rc=crf / mbtree=1 / crf=15.0 / qcomp=0.70 / qpmin=0 / qpmax=69 / qpstep=4 / vbv_maxrate=40000 / vbv_bufsize=30000 / crf_max=0.0 / nal_hrd=none / filler=0 / frame-packing=4 / ip_ratio=1.40 / aq=1:0.70
Language : Russian
Default : Yes
Forced : No
Audio #1
ID : 2
Format : AC-3
Format/Info : Audio Coding 3
Mode extension : CM (complete main)
Format settings, Endianness : Big
Codec ID : A_AC3
Duration : 1h 18mn
Bit rate mode : Constant
Bit rate : 384 Kbps
Channel(s) : 6 channels
Channel positions : Front: L C R, Side: L R, LFE
Sampling rate : 48.0 KHz
Bit depth : 16 bits
Compression mode : Lossy
Stream size : 217 MiB (3%)
Title : Дубляж - iTunes
Language : Russian
Default : Yes
Forced : No
Audio #2
ID : 3
Format : AC-3
Format/Info : Audio Coding 3
Mode extension : CM (complete main)
Format settings, Endianness : Big
Codec ID : A_AC3
Duration : 1h 18mn
Bit rate mode : Constant
Bit rate : 640 Kbps
Channel(s) : 6 channels
Channel positions : Front: L C R, Side: L R, LFE
Sampling rate : 48.0 KHz
Bit depth : 16 bits
Compression mode : Lossy
Stream size : 361 MiB (4%)
Title : Dubbing - BD 3D Ger
Language : English
Default : No
Forced : No
Text
ID : 4
Format : UTF-8
Codec ID : S_TEXT/UTF8
Codec ID/Info : UTF-8 Plain Text
Title : Форсированные
Language : Russian
Default : Yes
Forced : No
Menu
00:00:00.000 : :1
00:07:45.507 : :2
00:13:23.052 : :3
00:21:24.366 : :4
00:25:54.970 : :5
00:33:05.609 : :6
00:39:07.303 : :7
00:45:35.483 : :8
00:52:01.952 : :9
00:59:05.041 : :10
01:05:21.668 : :11
01:11:33.831 : :12





















   Похожие торренты   Торрент   Размер 
В этой теме нет новых непрочитанных сообщений. Снежная королева 2: Перезаморозка (2014) BDRip от Twi7ter | iTunes

1282 | 42

1.43 ГБ

В этой теме нет новых непрочитанных сообщений. Снежная королева 2: Перезаморозка (2014) BDRip-AVC от ExKinoRay | iTunes

338 | 11

2.19 ГБ

В этой теме нет новых непрочитанных сообщений. Снежная королева 2: Перезаморозка (2014) WEB-DLRip | iTunes

8840 | 278

1.37 ГБ

В этой теме нет новых непрочитанных сообщений. Снежная королева 2: Перезаморозка (2014) WEB-DL 720p | iTunes

1238 | 116

2.49 ГБ

В этой теме нет новых непрочитанных сообщений. Снежная королева 2: Перезаморозка (2014) WEB-DL 720p | iTunes

2310 | 281

2.41 ГБ

В этой теме нет новых непрочитанных сообщений. Снежная королева 2: Перезаморозка (2014) WEB-DLRip от ExKinoRay | iTunes Russia

845 | 73

749.08 МБ

В этой теме нет новых непрочитанных сообщений. Снежная королева 2: Перезаморозка (2014) WEB-DLRip-AVC от ExKinoRay | iTunes Russia

895 | 58

1.61 ГБ




Вы не можете начинать темы
Вы не можете отвечать на сообщения
Вы не можете редактировать свои сообщения
Вы не можете удалять свои сообщения
Вы не можете добавлять вложения

Перейти:  
Для Мосгорсуда, Роскомнадзора и рекламодателей: mosgorsud-torrent[собачка]yandex.ru
 Вход
ppkBB3cker v.2 © 2008-2014 @ PPK
[ Time : 0.041s | 16 Queries | GZIP : Off ]

Торрент трекер RUTOR.IN, Не можете зайти на rutor.org? Какой новый адрес рутор? Какое зеркало рутор? Не работает rutor.org и зеркала? Тогда наш торрент специально для вас. Rutor.in неофициальное зеркало rutor. В случае если у Вас заблокирован rutor или вдруг Вы не можете на него зайти, то Вы без труда сможете скачать бесплатно и без рекламы последние новинки кино, игр, сериалов и прочего у нас, на Rutor.in. Не нужно использовать прокси, чтобы зайти на рутор, достаточно воспользоваться нашим ресурсом. Все новые фильмы, игры, сериалы, книги и музыка за 2013 и 2014 годы через торрент бесплатно. Скачивайте фильмы в хорошем качестве, игры для пк, xbox, playstation без регистрации. У нас вы найдете новые Зарубежные сериалы и Русские сериалы 2013, 2014, 2015 годов. Оставайтесь с нами, качайте любимые фильмы, игры, сериалы, книги и музыку.
cron