img image001 image001 image001 image001 image001 image001 image001 image001 image001 image001 image001 image001 image001 image001 image001

Planets Sun Sun Sun
Статистика раздачи
Автор: Nickolas3434 | Размер: 5.91 ГБ | Добавлен: 23 апр 2016
Раздают: 17    Качают: 2
Скачать торрент
Скачать торрент
Описание торрента

СообщениеДобавлено: 23 апр 2016 

Информация о фильме
Название: Катя и Мим-Мим
Оригинальное название: Kate and Mim-Mim
Год выхода: 2014
Страна: Канада, DHX Media, Nerd Corps Entertainment
Жанр: Мультсериал, детский, семейный, приключения
Продолжительность: 39 x ~ 00:11:02
Перевод: Профессиональный дублированный
Режиссеры: Себастьян Бродин, Клинт Батлер, James Corrigall, ...
Роли озвучивали: Брайан Драммонд, Дэвид Годфри, Марика Хендрикс, Jeff Schjerlund, Табита Сен-Жермен, ...
Роли дублировали:
Катя - Дарья Фролова
Мим-Мим, Папа - Антон Савенков
Тэк, Мама - Марина Бакина
Габл - Иван Калинин
Лили, Бумер - Ольга Голованова
О фильме:
Мультфильм для детей про приключения девочки Кати, зайчика Мим-Мима и их друзей. Знакомьтесь, это Катя, ей 5 лет, вместе со своей любимой игрушкой зайцем Мим-Мимом они путешествуют в мире Мимилу.
Сезон 1
2014, эпизодов: 52 (1 сентября - 17 ноября 2014)
01. Шарик для друга / Balloon Buddies
02. Сияй, Звезда! / Twinkle Twinkle
03. Приступ Смехожуков / A Case of the Giggles
04. Икота и ночь на природе / Hiccups and Night Fun
05. Неистовая гонка / Rip Roaring Race
06. Охота за семенем / The Need for Seed
07. Без цветов никуда / Colour Me Happy
08. Котята и Шерстята / Kittens and Mittens
09. Суета вокруг хвоста / Tail Tale
10. Сила дружбы / Mirror Mirror
11. Размер Бумера / Boomer Size
12. Лунное несчастье / Mim-Mim's Moon Mishap
13. Ти-Хи-Рекс / Tee Hee Rex
14. Музыкальный мега-инструмент / Mega Music Maker
15. Затерянный остров / Lost Island
16. Полет на цветах / Flight of the Flowers
17. Облачный замок / Cloud Castle
18. Снежный боулинг / Snow Bowling
19. День Святого Валентина / Valentine Friends
20. Окончание сказки / A Storybook Ending
21. Чей запах лучше? / Snifferific
22. Великое путешествие / Summer Funday Drive
23. МегаМим / Mega Mim
24. Катя - волшебница / Kate the Great
25. Большая уборка / Clean Sweep
26. Принцесса Катя / Princess Kate
27. Легче воздуха / Lighter Than Air
28. Талант Габла / Gobble's Gift
29. Рождественские приключения / A Wish for Christmas
30. Рождественские приключения. Часть 2 / A Wish for Christmas. P-2
31. Няни Сквуша / Babysitting Squoosh
32. Снеговик Чилли / Chilly the Snowman
33. Дело Хамелипотама / The Curious Case of the Chamelippoo
34. Подводный пузырь / Bubble Subble
35. Поиски дома дракона / Kate's Dragon Quest
36. Цветы-бабочки / Butterfly Flowers
38. День смешивания игр / Make Up a Game Day
39. Кафе Лили / Lily's Cafe
40. Прыжковая гонка / Leapfrog Underdog



Доп. информация:
Сэмпл


Файл
Формат: AVI
Качество: WEBRip
Видео: 704x400 (1.76:1), 25 fps, XviD build 65 ~1500 kbps avg, 0.21 bit/pixel
Звук: 48 kHz, AC3 Dolby Digital, 2/0 (L,R) ch, ~192.00 kbps avg
Субтитры: нет
10. Сила дружбы. XviD.-merci-.avi
Format : AVI
Format/Info : Audio Video Interleave
File size : 134 MiB
Duration : 11mn 0s
Overall bit rate : 1 703 Kbps
Writing application : VirtualDubMod 1.5.10.3 | www.virtualdub-fr.org || (build 2550/release)
Writing library : VirtualDubMod build 2550/release
Video
ID : 0
Format : MPEG-4 Visual
Format profile : Advanced Simple@L5
Format settings, BVOP : 1
Format settings, QPel : No
Format settings, GMC : No warppoints
Format settings, Matrix : Default (MPEG)
Codec ID : XVID
Codec ID/Hint : XviD
Duration : 11mn 0s
Bit rate : 1 501 Kbps
Width : 704 pixels
Height : 400 pixels
Display aspect ratio : 16:9
Frame rate : 25.000 fps
Color space : YUV
Chroma subsampling : 4:2:0
Bit depth : 8 bits
Scan type : Progressive
Compression mode : Lossy
Bits/(Pixel*Frame) : 0.213
Stream size : 118 MiB (88%)
Writing library : XviD 65
Audio
ID : 1
Format : AC-3
Format/Info : Audio Coding 3
Mode extension : CM (complete main)
Format settings, Endianness : Big
Codec ID : 2000
Duration : 11mn 0s
Bit rate mode : Constant
Bit rate : 192 Kbps
Channel(s) : 2 channels
Channel positions : Front: L R
Sampling rate : 48.0 KHz
Frame rate : 31.250 fps (1536 spf)
Compression mode : Lossy
Stream size : 15.1 MiB (11%)
Alignment : Split accross interleaves
Interleave, duration : 40 ms (1.00 video frame)
Interleave, preload duratio : 500 ms


Релиз от: -merci-



   Похожие торренты   Торрент   Размер 
В этой теме нет новых непрочитанных сообщений. Катя и Мим-Мим / Kate and Mim-Mim [01-39 из 52] (2014) WEBRip от -merci- | D

10 | 4

5.38 ГБ

В этой теме нет новых непрочитанных сообщений. Катя и Мим-Мим / Kate and Mim-Mim [01-39 из 52] (2014) WEBRip от -merci- | D

8 | 3

5.12 ГБ

В этой теме нет новых непрочитанных сообщений. Катя и Мим-Мим / Kate and Mim-Mim [01-36 из 52] (2014) WEBRip 1080p от -merci- | D

3 | 4

6.95 ГБ

В этой теме нет новых непрочитанных сообщений. Катя и Мим-Мим / Kate and Mim-Mim [01-36 из 52] (2014) WEBRip 720p от -merci- | D

9 | 1

4.19 ГБ

В этой теме нет новых непрочитанных сообщений. Катя и Мим-Мим / Kate and Mim-Mim [01-36 из 52] (2014) WEBRip 720p от -merci- | D

7 | 22

4.74 ГБ

В этой теме нет новых непрочитанных сообщений. Катя и Мим-Мим / Kate and Mim-Mim [01-36 из 52] (2014) WEBRip 720p от -merci- | D

0 | 0

4.52 ГБ

В этой теме нет новых непрочитанных сообщений. Катя и Мим-Мим / Kate and Mim-Mim [01-36 из 52] (2014) WEBRip 1080p от -merci- | D

8 | 2

6.57 ГБ




Вы не можете начинать темы
Вы не можете отвечать на сообщения
Вы не можете редактировать свои сообщения
Вы не можете удалять свои сообщения
Вы не можете добавлять вложения

Перейти:  
Для Мосгорсуда, Роскомнадзора и рекламодателей: mosgorsud-torrent[собачка]yandex.ru
 Вход
ppkBB3cker v.2 © 2008-2014 @ PPK
[ Time : 0.023s | 14 Queries | GZIP : Off ]
CGP output time : 0.024s | 7 Queries | GZIP : Off

Торрент трекер RUTOR.IN, Не можете зайти на rutor.org? Какой новый адрес рутор? Какое зеркало рутор? Не работает rutor.org и зеркала? Тогда наш торрент специально для вас. Rutor.in неофициальное зеркало rutor. В случае если у Вас заблокирован rutor или вдруг Вы не можете на него зайти, то Вы без труда сможете скачать бесплатно и без рекламы последние новинки кино, игр, сериалов и прочего у нас, на Rutor.in. Не нужно использовать прокси, чтобы зайти на рутор, достаточно воспользоваться нашим ресурсом. Все новые фильмы, игры, сериалы, книги и музыка за 2013 и 2014 годы через торрент бесплатно. Скачивайте фильмы в хорошем качестве, игры для пк, xbox, playstation без регистрации. У нас вы найдете новые Зарубежные сериалы и Русские сериалы 2013, 2014, 2015 годов. Оставайтесь с нами, качайте любимые фильмы, игры, сериалы, книги и музыку.