img image001 image001 image001 image001 image001 image001 image001 image001 image001 image001 image001 image001 image001 image001 image001

Planets Sun Sun Sun
Статистика раздачи
Автор: Nickolas3434 | Размер: 1.46 ГБ | Добавлен: 05 май 2016
Раздают: 103    Качают: 12
Скачать торрент
Скачать торрент
Описание торрента

СообщениеДобавлено: 05 май 2016 

Страна: СССР
Производство: Союзмультфильм
Жанр: мультфильм, короткометражка
Год выпуска: 1955-1976
Продолжительность: 01:52:45
Перевод: Не требуется
Cубтитры: нет
Оригинальная аудиодорожка: русский
Режиссер: Владимир Дегтярев, Леонид Амальрик, Иван Аксенчук...
Описание: «Союзмультфильм» — крупнейшая в СССР студия мультипликационных фильмов, основанная в Москве 10 июня 1936 года. Студия создана 10 июня 1936 года с названием — «Союздетмультфильм» (из объединения мелких коллективов Мосфильма, Совкино и Межрабпромфильма), а с 20 августа 1937 года ее переименовали в «Союзмультфильм». Хотя приказ о создании студии был подписан начальником Главного Управления кинофотопромышленности, считается, что решение о создании студии мультипликационных фильмов исходило лично от И. В. Сталина. Для студии были выделены помещения закрытых Советской властью храмов: Николая Чудотворца в Новой слободе на Долгоруковской улице (в советское время — Каляевской улице), где находилось производство рисованных фильмов, и Спаса Преображения «что на Песках» в Спасопесковском переулке на Арбате, где располагалось «Творческое объединение кукольных фильмов». Храм на Арбате в 1991 году был возвращен Русской Православной Церкви, а храм на ул. Долгоруковской не возвращен РПЦ до сих пор, хотя решения о необходимости, в принципе, вернуть Церкви отнятые у неё храмы принимались уже более 15 лет назад. В настоящее время здание на Долгоруковской ул. дом 25 находится в федеральной собственности и закреплено на праве хозяйственного ведения за ФГУП "ТПО "Киностудия «Союзмультфильм».
Первый мультфильм, выпущенный студией, назывался «В Африке жарко» (1936 год). С 1937 года начали выпускаться цветные мультфильмы. На студии снято более 1500 мультфильмов.





Источник: DVD9 R5
Качество видео: DVDRip-AVC
Формат видео: MKV
Видео: 720->762x572 (4:3), 25 fps, H264 ~ 1610 kbps avg, 0.156 bit/pixel
Аудио: 48 kHz, Dolby Digital AC3 5.1, 448 kbps
Раздача от:
01. Гадкий утёнок (1955) 0:29:45
02. Свинья-копилка (1963) (1965) 0:10:00
03. Дюймовочка (1964) 0:28:30
04. Русалочка (1968) 0:27:30
05. Стойкий оловянный солдатик (1976) 0:17:00

Общее
Полное имя : Skazki.G.H.Andersena.1955-1976.DVDRip-AVC_[New-team]_by_AVP_Studio.mkv
Формат : Matroska
Версия формата : Version 2
Размер файла : 147 Мбайт
Продолжительность : 10 м.
Общий поток : 2060 Кбит/сек
Дата кодирования : UTC 2016-05-02 08:29:08
Программа кодирования : mkvmerge v6.1.0 ('Old Devil') built on Mar 4 2013 09:10:42
Библиотека кодирования : libebml v1.3.0 + libmatroska v1.4.0
Видео
Идентификатор : 1
Формат : AVC
Формат/Информация : Advanced Video Codec
Профиль формата : High@L4.1
Параметр CABAC формата : Да
Параметр ReFrames формата : 10 кадров
Идентификатор кодека : V_MPEG4/ISO/AVC
Продолжительность : 10 м.
Битрейт : 1610 Кбит/сек
Ширина : 720 пикселей
Высота : 572 пикселя
Соотношение сторон : 4:3
Режим частоты кадров : Постоянный
Частота кадров : 25,000 кадров/сек
Цветовое пространство : YUV
Субдискретизация насыщенности : 4:2:0
Битовая глубина : 8 бит
Тип развёртки : Прогрессивная
Бит/(Пиксели*Кадры) : 0.156
Размер потока : 112 Мбайт (76%)
Библиотека кодирования : x264 core 148 r2597 e86f3a1
Настройки программы : cabac=1 / ref=10 / deblock=1:-3:-2 / analyse=0x3:0x113 / me=umh / subme=10 / psy=1 / psy_rd=1.00:0.00 / mixed_ref=1 / me_range=32 / chroma_me=1 / trellis=2 / 8x8dct=1 / cqm=0 / deadzone=21,11 / fast_pskip=1 / chroma_qp_offset=-2 / threads=6 / lookahead_threads=1 / sliced_threads=0 / nr=0 / decimate=0 / interlaced=0 / bluray_compat=0 / constrained_intra=0 / bframes=8 / b_pyramid=2 / b_adapt=2 / b_bias=0 / direct=3 / weightb=1 / open_gop=0 / weightp=2 / keyint=250 / keyint_min=25 / scenecut=40 / intra_refresh=0 / rc_lookahead=40 / rc=2pass / mbtree=1 / bitrate=1610 / ratetol=1.0 / qcomp=0.60 / qpmin=0 / qpmax=69 / qpstep=4 / cplxblur=20.0 / qblur=0.5 / ip_ratio=1.40 / aq=1:1.00
Default : Да
Forced : Нет
Аудио
Идентификатор : 2
Формат : AC-3
Формат/Информация : Audio Coding 3
Расширение режима : CM (complete main)
Параметр Endianness формата : Big
Идентификатор кодека : A_AC3
Продолжительность : 10 м.
Вид битрейта : Постоянный
Битрейт : 448 Кбит/сек
Каналы : 6 каналов
Расположение каналов : Front: L C R, Side: L R, LFE
Частота : 48,0 КГц
Частота кадров : 31,250 кадров/сек (1536 spf)
Метод сжатия : С потерями
Размер потока : 32,0 Мбайт (22%)
Default : Да
Forced : Нет





   Похожие торренты   Торрент   Размер 
В этой теме нет новых непрочитанных сообщений. Сказки Ганса Христиана Андерсена [05 шт] (1955-1976) DVDRip от New-Team

72 | 5

1.49 ГБ

В этой теме нет новых непрочитанных сообщений. Сказки Г. Х. Андерсена .Сборник мультфильмов. (1956-1976) DVDRip

29 | 53

1.17 ГБ

В этой теме нет новых непрочитанных сообщений. Сборник мультфильмов. Сказки Х. К. Андерсена (1956-1976) DVDRip от Киномагия

56 | 10

1.34 ГБ

В этой теме нет новых непрочитанных сообщений. Мелодия - Сказки Андерсена. Часть 2 (1955 - 1974) MP3

12 | 9

123.73 МБ

В этой теме нет новых непрочитанных сообщений. Сборник мультфильмов - Союзмультфильм: В гостях у сказки [25 шт] (1955-1985) DVDRip-AVC от New-Team

731 | 77

4.35 ГБ

В этой теме нет новых непрочитанных сообщений. Сборник мультфильмов - Союзмультфильм: В гостях у сказки [23 шт] (1955-1985) DVDRip от New-Team

232 | 53

4.36 ГБ

В этой теме нет новых непрочитанных сообщений. Концептуал ТВ: Сказки дядюшки Ганса (2013) HD 1080p

0 | 1

368.17 МБ




Вы не можете начинать темы
Вы не можете отвечать на сообщения
Вы не можете редактировать свои сообщения
Вы не можете удалять свои сообщения
Вы не можете добавлять вложения

Перейти:  
Для Мосгорсуда, Роскомнадзора и рекламодателей: mosgorsud-torrent[собачка]yandex.ru
 Вход
ppkBB3cker v.2 © 2008-2014 @ PPK
[ Time : 0.028s | 18 Queries | GZIP : Off ]

Торрент трекер RUTOR.IN, Не можете зайти на rutor.org? Какой новый адрес рутор? Какое зеркало рутор? Не работает rutor.org и зеркала? Тогда наш торрент специально для вас. Rutor.in неофициальное зеркало rutor. В случае если у Вас заблокирован rutor или вдруг Вы не можете на него зайти, то Вы без труда сможете скачать бесплатно и без рекламы последние новинки кино, игр, сериалов и прочего у нас, на Rutor.in. Не нужно использовать прокси, чтобы зайти на рутор, достаточно воспользоваться нашим ресурсом. Все новые фильмы, игры, сериалы, книги и музыка за 2013 и 2014 годы через торрент бесплатно. Скачивайте фильмы в хорошем качестве, игры для пк, xbox, playstation без регистрации. У нас вы найдете новые Зарубежные сериалы и Русские сериалы 2013, 2014, 2015 годов. Оставайтесь с нами, качайте любимые фильмы, игры, сериалы, книги и музыку.