img image001 image001 image001 image001 image001 image001 image001 image001 image001 image001 image001 image001 image001 image001 image001

Planets Sun Sun Sun
Статистика раздачи
Автор: Nickolas3434 | Размер: 2.79 ГБ | Добавлен: 05 май 2016
Раздают: 23    Качают: 3
Скачать торрент
Скачать торрент
Описание торрента

СообщениеДобавлено: 05 май 2016 

Информация о фильме
Название: СуперКрылья. Джетт и его друзья
Оригинальное название: Super Wings. Jett and his friends
Год выхода: 2015
Страна: USA, South Korea, China
Студия: FunnyFlux Entertainment, Little Airplane Productions
Жанр: Мультсериал, познавательный, детский, приключения
Продолжительность: 14 х ~ 00:11:59
Перевод: Профессиональный дублированный
Режиссер: Гул Хоон Юнг
Роли озвучивали: Luca Padovan, Logan J Rush, Colin Critchley, Joseph Ricci, Jacob Schmitt, ...
О фильме:
Путешествуйте и изучайте страны мира вместе с персонажами мультсериала! Главный герой мультсериала — симпатичный самолетик Джетт. Он путешествует по миру, доставляя посылки детям. Иногда во время выполнения заданий Джетт сталкивается с трудностями, и на помощь ему приходят верные друзья, — команда бесстрашных трансформеров-самолётиков. В каждом эпизоде мультсериала герои отправляются в новую точку земного шара. Цель проекта — рассказать детям о культуре, традициях и языках различных стран и народов мира. Всего самолётики, а вместе с ними и маленькие телезрители, посетят 52 города в 45 государствах.
01. Правильный воздушный змей
02. Игра теней
03. Гонка на гондолах
04. Гавайское приключение
05. Щенки для принцессы
06. По сахаре на санках
07. Свет, камера, мотор!
08. Проблемы с пузырями
09. Гонка со временем
10. Звёзды Монголии
11. Невероятная самба
12. Мальчик из пирамиды
13. Боязнь сцены
14. Музыкальная горилла



Доп. информация:
Семпл


Файл
Формат: MP4
Качество: WEB-DL 1080p
Видео: MPEG4-AVC, High@L4, 1920x1080 (16:9), ~ 3 004 Kbps, 25.000 fps
Звук: 44.1 KHz, AAC-LC 2.0, 192 Kbps
Субтитры: нет
14. Музыкальная горилла. Full-HD-merci-.mp4
Format : MPEG-4
Format profile : Base Media
Codec ID : isom (isom/mp42)
File size : 274 MiB
Duration : 11mn 59s
Overall bit rate mode : Variable
Overall bit rate : 3 196 Kbps
Encoded date : UTC 2016-05-04 12:23:44
Tagged date : UTC 2016-05-04 12:23:44
Writing application : My MP4Box GUI 0.6.0.6
Video
ID : 1
Format : AVC
Format/Info : Advanced Video Codec
Format profile : High@L4
Format settings, CABAC : Yes
Format settings, ReFrames : 2 frames
Codec ID : avc1
Codec ID/Info : Advanced Video Coding
Duration : 11mn 59s
Source duration : 11mn 59s
Bit rate : 3 004 Kbps
Width : 1 920 pixels
Height : 1 080 pixels
Display aspect ratio : 16:9
Frame rate mode : Constant
Frame rate : 25.000 fps
Color space : YUV
Chroma subsampling : 4:2:0
Bit depth : 8 bits
Scan type : Progressive
Bits/(Pixel*Frame) : 0.058
Stream size : 258 MiB (94%)
Source stream size : 258 MiB (94%)
Language : English
Encoded date : UTC 2016-05-04 12:23:44
Tagged date : UTC 2016-05-04 12:23:44
Color range : Limited
Color primaries : BT.709
Transfer characteristics : BT.709
Matrix coefficients : BT.709
mdhd_Duration : 719181
Audio
ID : 2
Format : AAC
Format/Info : Advanced Audio Codec
Format profile : LC
Codec ID : 40
Duration : 11mn 59s
Bit rate mode : Variable
Bit rate : 187 Kbps
Channel(s) : 2 channels
Channel positions : Front: L R
Sampling rate : 44.1 KHz
Frame rate : 43.066 fps (1024 spf)
Compression mode : Lossy
Stream size : 16.0 MiB (6%)
Language : English
Encoded date : UTC 2016-05-04 12:23:44
Tagged date : UTC 2016-05-04 12:23:44
mdhd_Duration : 719285


Релиз от: -merci-



   Похожие торренты   Торрент   Размер 
В этой теме нет новых непрочитанных сообщений. СуперКрылья. Джетт и его друзья / Super Wings. Jett and his friends [01-14 из 52] (2015) WEB-DL 1080p | D

14 | 1

3.32 ГБ

В этой теме нет новых непрочитанных сообщений. СуперКрылья. Джетт и его друзья / Super Wings. Jett and his friends [01-14 из 52] (2015) WEB-DL 1080p | D

34 | 0

4.79 ГБ

В этой теме нет новых непрочитанных сообщений. СуперКрылья. Джетт и его друзья / Super Wings. Jett and his friends [01-14 из 52] (2015) WEB-DL 1080p | D

5 | 3

3.79 ГБ

В этой теме нет новых непрочитанных сообщений. СуперКрылья. Джетт и его друзья / Super Wings. Jett and his friends [01-40 из 52] (2015) WEBRip 1080p от ExKinoRay | D

9 | 8

8.97 ГБ

В этой теме нет новых непрочитанных сообщений. СуперКрылья. Джетт и его друзья / Super Wings. Jett and his friends [01-14 из 52] (2015) WEB-DL 720p | D

12 | 1

2.81 ГБ

В этой теме нет новых непрочитанных сообщений. СуперКрылья. Джетт и его друзья / Super Wings. Jett and his friends [01-14 из 52] (2015) WEB-DL 720p | D

6 | 1

2.25 ГБ

В этой теме нет новых непрочитанных сообщений. СуперКрылья. Джетт и его друзья / Super Wings. Jett and his friends [01-14 из 52] (2015) WEB-DL 720p | D

54 | 4

1.98 ГБ




Вы не можете начинать темы
Вы не можете отвечать на сообщения
Вы не можете редактировать свои сообщения
Вы не можете удалять свои сообщения
Вы не можете добавлять вложения

Перейти:  
Для Мосгорсуда, Роскомнадзора и рекламодателей: mosgorsud-torrent[собачка]yandex.ru
 Вход
ppkBB3cker v.2 © 2008-2014 @ PPK
[ Time : 0.050s | 15 Queries | GZIP : Off ]

Торрент трекер RUTOR.IN, Не можете зайти на rutor.org? Какой новый адрес рутор? Какое зеркало рутор? Не работает rutor.org и зеркала? Тогда наш торрент специально для вас. Rutor.in неофициальное зеркало rutor. В случае если у Вас заблокирован rutor или вдруг Вы не можете на него зайти, то Вы без труда сможете скачать бесплатно и без рекламы последние новинки кино, игр, сериалов и прочего у нас, на Rutor.in. Не нужно использовать прокси, чтобы зайти на рутор, достаточно воспользоваться нашим ресурсом. Все новые фильмы, игры, сериалы, книги и музыка за 2013 и 2014 годы через торрент бесплатно. Скачивайте фильмы в хорошем качестве, игры для пк, xbox, playstation без регистрации. У нас вы найдете новые Зарубежные сериалы и Русские сериалы 2013, 2014, 2015 годов. Оставайтесь с нами, качайте любимые фильмы, игры, сериалы, книги и музыку.