img image001 image001 image001 image001 image001 image001 image001 image001 image001 image001 image001 image001 image001 image001 image001

Planets Sun Sun Sun
Статистика раздачи
Автор: Nickolas3434 | Размер: 490.26 МБ | Добавлен: 08 май 2016
Раздают: 31    Качают: 1
Скачать торрент
Скачать торрент
Описание торрента

СообщениеДобавлено: 08 май 2016 

Информация о фильме
Название: Планета Ай
Год выхода: 2015
Жанр: Мультсериал, детский, семейный, комедия, приключения
Режиссер: Андрей Соколов, Инна Евланникова
О мультфильме: Удивительные приключения обитателей планеты Ай. Мальчик-непоседа Родя, его папа изобретатель, робот Рыжий-5 и собака Шарпик живут тихой и беззаботной жизнью на небольшом спутнике планеты Aй. Но всё меняется, когда монитор, сконструированный папой, начинает транслировать захватывающие передачи с далёкой и никому не известной планеты Земля. Родя пытается скопировать всё увиденное в программах, и это постоянно приводит к непредсказуемым и комичным последствиям.

Выпущено: Россия
Продолжительность: 6 x ~ 00:05:25
Озвучивание: Оригинальное
Файл
Качество: WEB-DLRip (AVC)
Видео: MPEG-4 AVC, ~ 1925 Кбит/с, 1024x576
Аудио: AC3, 2 ch, 192 Кбит/с
01. Один дома
02. 1-1 в пользу папы
03. Ёлочка гори!
04. Крупная рыба
05. Железная любовь
06. Опасная ботаника

General
Unique ID : 198780367064207233547578424514421328320 (0x958BB4C4D6C6A07FAF53C40738C209C0)
Complete name : C:Planeta.I.2015.WEBDLRip.AVC.ExKinoRay\01.Odin.doma.2015.WEBDLRip.AVC.ExKinoRay.mkv
Format : Matroska
Format version : Version 4 / Version 2
File size : 82.4 MiB
Duration : 5mn 28s
Overall bit rate : 2 107 Kbps
Movie name : Планета Ай. С1. Один дома 2015 from ExKinoRay
Encoded date : UTC 2016-05-06 20:48:56
Writing application : mkvmerge v6.6.0 ('The Edge Of The In Between') built on Dec 1 2013 17:55:00
Writing library : libebml v1.3.0 + libmatroska v1.4.1
Video
ID : 1
Format : AVC
Format/Info : Advanced Video Codec
Format profile : High@L4.1
Format settings, CABAC : Yes
Format settings, ReFrames : 12 frames
Codec ID : V_MPEG4/ISO/AVC
Duration : 5mn 28s
Bit rate : 1 925 Kbps
Width : 1 024 pixels
Height : 576 pixels
Display aspect ratio : 16:9
Frame rate mode : Constant
Frame rate : 25.000 fps
Color space : YUV
Chroma subsampling : 4:2:0
Bit depth : 8 bits
Scan type : Progressive
Bits/(Pixel*Frame) : 0.131
Stream size : 73.3 MiB (89%)
Title : Enigma
Writing library : x264 core 142 r2431 ac76440
Encoding settings : cabac=1 / ref=12 / deblock=1:-2:-2 / analyse=0x3:0x113 / me=umh / subme=10 / psy=1 / psy_rd=1.00:0.10 / mixed_ref=1 / me_range=32 / chroma_me=1 / trellis=2 / 8x8dct=1 / cqm=0 / deadzone=21,11 / fast_pskip=0 / chroma_qp_offset=-3 / threads=12 / lookahead_threads=3 / sliced_threads=0 / nr=0 / decimate=0 / interlaced=0 / bluray_compat=0 / constrained_intra=0 / bframes=10 / b_pyramid=2 / b_adapt=2 / b_bias=0 / direct=3 / weightb=1 / open_gop=0 / weightp=2 / keyint=250 / keyint_min=25 / scenecut=40 / intra_refresh=0 / rc_lookahead=40 / rc=2pass / mbtree=0 / bitrate=1925 / ratetol=1.0 / qcomp=0.60 / qpmin=0 / qpmax=51 / qpstep=4 / cplxblur=20.0 / qblur=0.5 / vbv_maxrate=50000 / vbv_bufsize=62500 / nal_hrd=none / filler=0 / ip_ratio=1.40 / pb_ratio=1.30 / aq=1:1.00
Default : Yes
Forced : No
Color primaries : BT.709
Transfer characteristics : BT.709
Matrix coefficients : BT.709
Audio
ID : 2
Format : AC-3
Format/Info : Audio Coding 3
Mode extension : CM (complete main)
Format settings, Endianness : Big
Codec ID : A_AC3
Duration : 5mn 28s
Bit rate mode : Constant
Bit rate : 192 Kbps
Channel(s) : 2 channels
Channel positions : Front: L R
Sampling rate : 48.0 KHz
Bit depth : 16 bits
Compression mode : Lossy
Stream size : 7.51 MiB (9%)
Language : Russian
Default : Yes
Forced : No


Релиз от:
Автор релиза:



   Похожие торренты   Торрент   Размер 
В этой теме нет новых непрочитанных сообщений. Планета Ай [01-06] (2015) WEB-DLRip от ExKinoRay

94 | 0

483.72 МБ

В этой теме нет новых непрочитанных сообщений. Планета обезьян: Революция / Dawn of the Planet of the Apes (2014) WEB-DLRip от ExKinoRay | D

667 | 143

2.83 ГБ

В этой теме нет новых непрочитанных сообщений. Планета обезьян: Революция / Dawn of the Planet of the Apes (2014) WEB-DLRip-AVC от ExKinoRay | Чистый звук

2058 | 474

2.73 ГБ

В этой теме нет новых непрочитанных сообщений. Моя планета [01-12 из 12] (2015) WEB-DLRip от Generalfilm

116 | 11

3.42 ГБ

В этой теме нет новых непрочитанных сообщений. Планета бурь (1961) DVDRip-AVC от ExKinoRay

228 | 36

1.54 ГБ

В этой теме нет новых непрочитанных сообщений. Виталий Юр - Планета дельфинов (2007) MP3 от BestSound ExKinoRay

0 | 2

132.5 МБ

В этой теме нет новых непрочитанных сообщений. Красная планета / Red Planet (2000) BDRip-AVC от ExKinoRay

13 | 3

3 ГБ




Вы не можете начинать темы
Вы не можете отвечать на сообщения
Вы не можете редактировать свои сообщения
Вы не можете удалять свои сообщения
Вы не можете добавлять вложения

Перейти:  
Для Мосгорсуда, Роскомнадзора и рекламодателей: mosgorsud-torrent[собачка]yandex.ru
 Вход
ppkBB3cker v.2 © 2008-2014 @ PPK
[ Time : 0.048s | 16 Queries | GZIP : Off ]

Торрент трекер RUTOR.IN, Не можете зайти на rutor.org? Какой новый адрес рутор? Какое зеркало рутор? Не работает rutor.org и зеркала? Тогда наш торрент специально для вас. Rutor.in неофициальное зеркало rutor. В случае если у Вас заблокирован rutor или вдруг Вы не можете на него зайти, то Вы без труда сможете скачать бесплатно и без рекламы последние новинки кино, игр, сериалов и прочего у нас, на Rutor.in. Не нужно использовать прокси, чтобы зайти на рутор, достаточно воспользоваться нашим ресурсом. Все новые фильмы, игры, сериалы, книги и музыка за 2013 и 2014 годы через торрент бесплатно. Скачивайте фильмы в хорошем качестве, игры для пк, xbox, playstation без регистрации. У нас вы найдете новые Зарубежные сериалы и Русские сериалы 2013, 2014, 2015 годов. Оставайтесь с нами, качайте любимые фильмы, игры, сериалы, книги и музыку.
cron