img image001 image001 image001 image001 image001 image001 image001 image001 image001 image001 image001 image001 image001 image001 image001

Planets Sun Sun Sun
Статистика раздачи
Автор: Nickolas3434 | Размер: 1.46 ГБ | Добавлен: 08 май 2016
Раздают: 80    Качают: 2
Скачать торрент
Скачать торрент
Описание торрента

СообщениеДобавлено: 08 май 2016 


Информация о фильме
Название: Пес из Лас-Вегаса
Оригинальное название: Rover Dangerfield
Год выхода: 1991
Страна: США
Жанр: мультфильм, комедия, семейный
Режиссер: Джим Джордж / Jim George, Боб Сили / Bob Seeley
В ролях: Родни Дейнджерфилд, Сьюзэн Бойд, Ронни Шелл, Нед Льюк, Шон Сауфвик, Дэна Хилл, Сэл Ланди, Том Уильямс, Крис Латта, Боб Берген
О фильме: Ровер — пушистый, упитанный пес, привык к роскошной жизни в блестящем Лас-Вегасе. Огни большого города, ласковая хозяйка-танцовщица, косточки из лучших ресторанов… Но превратности судьбы забрасываю Ровера на самую обыкновенную ферму! Здесь он узнает о жизни много нового: чтобы тебя кормили — нужно работать, а пасти овец он не умеет.
Здесь не видели блестящих огней рекламы, но любуются светом звезд. Зимой здесь придется бегать по колючему снегу, а не греться на коврике… И волки здесь водятся самые настоящие. Но что не сделаешь, чтобы добиться уважения хозяев и расположения самой красивой овчарки в деревне? Ровера ожидают тяжелая работа и захватывающие приключения!


Продолжительность: 01:13:39
Перевод:
• Авторский (одноголосый закадровый) Юрий Живов
• Авторский (одноголосый закадровый) Алексей Михалёв
• Профессиональный (полное дублирование) Мост Видео
Оригинальная аудио дорожка: есть
Субтитры: отсутствуют
Файл
Кодек: XviD
Качество: DVDRip
Видео: 704x400 (1.76:1), 23.976 fps, XviD build 73 ~1734 kbps avg, 0.26 bit/pixel
Аудио #1: Русский: 48 kHz, AC3 Dolby Digital, 2/0 (L,R) ch, ~192.00 kbps avg [Авторский (одноголосый закадровый)]
Аудио #2: Русский: 48 kHz, AC3 Dolby Digital, 2/0 (L,R) ch, ~192.00 kbps avg [Авторский (одноголосый закадровый)]
Аудио #3: Русский: 48 kHz, AC3 Dolby Digital, 2/0 (L,R) ch, ~192.00 kbps avg [Профессиональный (полное дублирование)]
Аудио #4: Английский: 48 kHz, AC3 Dolby Digital, 2/0 (L,R) ch, ~192.00 kbps avg [Оригинал]

General
Complete name : G:ROVER_DANGERFIELDRover_Dangerfield_DVDRip 2хAVO + DUB.avi
Format : AVI
Format/Info : Audio Video Interleave
File size : 1.46 GiB
Duration : 1h 13mn
Overall bit rate : 2 838 Kbps
Writing application : VirtualDubMod 1.5.10.3 | www.virtualdub-fr.org || (build 2550/release)
Writing library : VirtualDubMod build 2550/release
Video #0
ID : 0
Format : MPEG-4 Visual
Format profile : Advanced Simple@L5
Format settings, BVOP : Yes
Format settings, QPel : No
Format settings, GMC : No warppoints
Format settings, Matrix : Custom
Codec ID : XVID
Codec ID/Hint : XviD
Duration : 1h 13mn
Bit rate : 2 046 Kbps
Width : 704 pixels
Height : 400 pixels
Display aspect ratio : 16:9
Frame rate : 23.976 fps
Color space : YUV
Chroma subsampling : 4:2:0
Bit depth : 8 bits
Scan type : Progressive
Bits/(Pixel*Frame) : 0.303
Stream size : 1.05 GiB (72%)
Writing library : XviD 73
Audio #1
ID : 1
Format : AC-3
Format/Info : Audio Coding 3
Mode extension : CM (complete main)
Codec ID : 2000
Duration : 1h 13mn
Bit rate mode : Constant
Bit rate : 192 Kbps
Channel(s) : 2 channels
Channel positions : Front: L R
Sampling rate : 48.0 KHz
Bit depth : 16 bits
Stream size : 101 MiB (7%)
Alignment : Split accross interleaves
Interleave, duration : 42 ms (1.00 video frame)
Interleave, preload duration : 500 ms
Title : rus zhivov
Audio #2
ID : 2
Format : AC-3
Format/Info : Audio Coding 3
Mode extension : CM (complete main)
Codec ID : 2000
Duration : 1h 13mn
Bit rate mode : Constant
Bit rate : 192 Kbps
Channel(s) : 2 channels
Channel positions : Front: L R
Sampling rate : 48.0 KHz
Bit depth : 16 bits
Stream size : 101 MiB (7%)
Alignment : Split accross interleaves
Interleave, duration : 42 ms (1.00 video frame)
Interleave, preload duration : 500 ms
Title : rus mischalev
Audio #3
ID : 3
Format : AC-3
Format/Info : Audio Coding 3
Mode extension : CM (complete main)
Codec ID : 2000
Duration : 1h 13mn
Bit rate mode : Constant
Bit rate : 192 Kbps
Channel(s) : 2 channels
Channel positions : Front: L R
Sampling rate : 48.0 KHz
Bit depth : 16 bits
Stream size : 101 MiB (7%)
Alignment : Split accross interleaves
Interleave, duration : 42 ms (1.00 video frame)
Interleave, preload duration : 500 ms
Title : rus dub
Audio #4
ID : 4
Format : AC-3
Format/Info : Audio Coding 3
Mode extension : CM (complete main)
Codec ID : 2000
Duration : 1h 13mn
Bit rate mode : Constant
Bit rate : 192 Kbps
Channel(s) : 2 channels
Channel positions : Front: L R
Sampling rate : 48.0 KHz
Bit depth : 16 bits
Stream size : 101 MiB (7%)
Alignment : Split accross interleaves
Interleave, duration : 42 ms (1.00 video frame)
Interleave, preload duration : 500 ms
Title : eng


Автор рипа: domin8



   Похожие торренты   Торрент   Размер 
В этой теме нет новых непрочитанных сообщений. Пес из Лас-Вегаса / Rover Dangerfield (1991) DVDRip от rs.bandito | D

32 | 1

744.06 МБ

В этой теме нет новых непрочитанных сообщений. Пес из Лас-Вегаса / Rover Dangerfield (1991) VHSRip

12 | 4

699.87 МБ

В этой теме нет новых непрочитанных сообщений. Звездный патруль: Легенда об Орине / Starchaser: The Legend of Orin (1985) DVDRip от rs.bandito | A

141 | 3

746.4 МБ

В этой теме нет новых непрочитанных сообщений. Красавица-воин Сейлор Мун / Sailor Moon [TV+Movie+SP+AMV+OP&ED] (1992-1996) DVDRip от rs.bandito | HWP

43 | 52

75.38 ГБ

В этой теме нет новых непрочитанных сообщений. Звездный патруль: Легенда об Орине / Starchaser: The Legend of Orin (1985) DVDRip от rs.bandito | A,P

26 | 1

1.62 ГБ

В этой теме нет новых непрочитанных сообщений. Кругосветное путешествие Твити / Tweety's High-Flying Adventure (2000) DVDRip от rs.bandito | A

88 | 15

1.48 ГБ

В этой теме нет новых непрочитанных сообщений. Кругосветное путешествие Твити / Tweety's High-Flying Adventure (2000) DVDRip от rs.bandito | A

41 | 7

745.22 МБ




Вы не можете начинать темы
Вы не можете отвечать на сообщения
Вы не можете редактировать свои сообщения
Вы не можете удалять свои сообщения
Вы не можете добавлять вложения

Перейти:  
Для Мосгорсуда, Роскомнадзора и рекламодателей: mosgorsud-torrent[собачка]yandex.ru
 Вход
ppkBB3cker v.2 © 2008-2014 @ PPK
[ Time : 0.054s | 15 Queries | GZIP : Off ]

cron