img image001 image001 image001 image001 image001 image001 image001 image001 image001 image001 image001 image001 image001 image001 image001

Planets Sun Sun Sun
Статистика раздачи
Автор: Nickolas3434 | Размер: 744.06 МБ | Добавлен: 08 май 2016
Раздают: 66    Качают: 1
Скачать торрент
Скачать торрент
Описание торрента

СообщениеДобавлено: 08 май 2016 


Информация о фильме
Название: Пес из Лас-Вегаса
Оригинальное название: Rover Dangerfield
Год выхода: 1991
Страна: США
Жанр: мультфильм, комедия, семейный
Режиссер: Джим Джордж / Jim George, Боб Сили / Bob Seeley
В ролях: Родни Дейнджерфилд, Сьюзэн Бойд, Ронни Шелл, Нед Льюк, Шон Сауфвик, Дэна Хилл, Сэл Ланди, Том Уильямс, Крис Латта, Боб Берген
О фильме: Ровер — пушистый, упитанный пес, привык к роскошной жизни в блестящем Лас-Вегасе. Огни большого города, ласковая хозяйка-танцовщица, косточки из лучших ресторанов… Но превратности судьбы забрасываю Ровера на самую обыкновенную ферму! Здесь он узнает о жизни много нового: чтобы тебя кормили — нужно работать, а пасти овец он не умеет.
Здесь не видели блестящих огней рекламы, но любуются светом звезд. Зимой здесь придется бегать по колючему снегу, а не греться на коврике… И волки здесь водятся самые настоящие. Но что не сделаешь, чтобы добиться уважения хозяев и расположения самой красивой овчарки в деревне? Ровера ожидают тяжелая работа и захватывающие приключения!


Продолжительность: 01:13:39
Перевод: Профессиональный (полное дублирование) Мост Видео
Субтитры: отсутствуют
Файл
Кодек: XviD
Качество: DVDRip
Видео: 656x368 (1.78:1), 23.976 fps, XviD build 73 ~1274 kbps avg, 0.22 bit/pixel
Аудио:48 kHz, MPEG Layer 3, 2 ch, ~128.00 kbps avg

General
Complete name : F:ROVER_DANGERFIELDRover_Dangerfield_DVDRip_DUB.avi
Format : AVI
Format/Info : Audio Video Interleave
File size : 744 MiB
Duration : 1h 13mn
Overall bit rate : 1 412 Kbps
Writing application : VirtualDubMod 1.5.10.3 | www.virtualdub-fr.org || (build 2550/release)
Writing library : VirtualDubMod build 2550/release
Video #0
ID : 0
Format : MPEG-4 Visual
Format profile : Advanced Simple@L5
Format settings, BVOP : Yes
Format settings, QPel : No
Format settings, GMC : No warppoints
Format settings, Matrix : Default (H.263)
Codec ID : XVID
Codec ID/Hint : XviD
Duration : 1h 13mn
Bit rate : 1 275 Kbps
Width : 656 pixels
Height : 368 pixels
Display aspect ratio : 16:9
Frame rate : 23.976 fps
Color space : YUV
Chroma subsampling : 4:2:0
Bit depth : 8 bits
Scan type : Progressive
Bits/(Pixel*Frame) : 0.220
Stream size : 672 MiB (90%)
Writing library : XviD 73
Audio #1
ID : 1
Format : MPEG Audio
Format version : Version 1
Format profile : Layer 3
Codec ID : 55
Codec ID/Hint : MP3
Duration : 1h 13mn
Bit rate mode : Constant
Bit rate : 128 Kbps
Channel(s) : 2 channels
Sampling rate : 48.0 KHz
Stream size : 67.4 MiB (9%)
Alignment : Aligned on interleaves
Interleave, duration : 42 ms (1.00 video frame)
Interleave, preload duration : 504 ms
Title : ru
Writing library : LAME3.99r
Encoding settings : -m s -V 4 -q 2 -lowpass 17 -b 128

Автор рипа: domin8



   Похожие торренты   Торрент   Размер 
В этой теме нет новых непрочитанных сообщений. Пес из Лас-Вегаса / Rover Dangerfield (1991) DVDRip от rs.bandito | A, D

95 | 2

1.46 ГБ

В этой теме нет новых непрочитанных сообщений. Пес из Лас-Вегаса / Rover Dangerfield (1991) VHSRip

12 | 4

699.87 МБ

В этой теме нет новых непрочитанных сообщений. Звездный патруль: Легенда об Орине / Starchaser: The Legend of Orin (1985) DVDRip от rs.bandito | A

138 | 3

746.4 МБ

В этой теме нет новых непрочитанных сообщений. Кругосветное путешествие Твити / Tweety's High-Flying Adventure (2000) DVDRip от rs.bandito | A

41 | 7

745.22 МБ

В этой теме нет новых непрочитанных сообщений. Красавица-воин Сейлор Мун / Sailor Moon [TV+Movie+SP+AMV+OP&ED] (1992-1996) DVDRip от rs.bandito | HWP

45 | 54

75.38 ГБ

В этой теме нет новых непрочитанных сообщений. Кругосветное путешествие Твити / Tweety's High-Flying Adventure (2000) DVDRip от rs.bandito | A

82 | 15

1.48 ГБ

В этой теме нет новых непрочитанных сообщений. Звездный патруль: Легенда об Орине / Starchaser: The Legend of Orin (1985) DVDRip от rs.bandito | A,P

50 | 4

1.62 ГБ




Вы не можете начинать темы
Вы не можете отвечать на сообщения
Вы не можете редактировать свои сообщения
Вы не можете удалять свои сообщения
Вы не можете добавлять вложения

Перейти:  
Для Мосгорсуда, Роскомнадзора и рекламодателей: mosgorsud-torrent[собачка]yandex.ru
 Вход
ppkBB3cker v.2 © 2008-2014 @ PPK
[ Time : 0.061s | 15 Queries | GZIP : Off ]

Торрент трекер RUTOR.IN, Не можете зайти на rutor.org? Какой новый адрес рутор? Какое зеркало рутор? Не работает rutor.org и зеркала? Тогда наш торрент специально для вас. Rutor.in неофициальное зеркало rutor. В случае если у Вас заблокирован rutor или вдруг Вы не можете на него зайти, то Вы без труда сможете скачать бесплатно и без рекламы последние новинки кино, игр, сериалов и прочего у нас, на Rutor.in. Не нужно использовать прокси, чтобы зайти на рутор, достаточно воспользоваться нашим ресурсом. Все новые фильмы, игры, сериалы, книги и музыка за 2013 и 2014 годы через торрент бесплатно. Скачивайте фильмы в хорошем качестве, игры для пк, xbox, playstation без регистрации. У нас вы найдете новые Зарубежные сериалы и Русские сериалы 2013, 2014, 2015 годов. Оставайтесь с нами, качайте любимые фильмы, игры, сериалы, книги и музыку.
cron