img image001 image001 image001 image001 image001 image001 image001 image001 image001 image001 image001 image001 image001 image001 image001

Planets Sun Sun Sun
Статистика раздачи
Автор: Nickolas3434 | Размер: 1.76 ГБ | Добавлен: 10 май 2016
Раздают: 1805    Качают: 18
Скачать торрент
Скачать торрент
Описание торрента

СообщениеДобавлено: 10 май 2016 

Зверополис / Zootopia

Год выхода: 2016
Страна: США
Студия: Walt Disney Pictures, Walt Disney Animation Studios
Продолжительность: 01:47:14
Перевод: Профессиональный (дублированный) |line|
Оригинальная дорожка: Есть (английский) |line|
Жанр: мультфильм, боевик, комедия, криминал, приключения
Режиссер: Байрон Ховард / Byron Howard, Рич Мур / Rich Moore, Джаред Буш / Jared Bush
Роли озвучивали: Джиннифер Гудвин (Judy Hopps), Джейсон Бейтман (Nick Wilde), Идрис Эльба (Chief Bogo), Дженни Слейт (Bellwether), Нейт Торренс (Clawhauser), Бонни Хант (Bonnie Hopps), Дон Лейк (Stu Hopps), Томми Чонг (Yax), Дж.К. Симмонс (Mayor Lionheart), Октавия Спенсер (Mrs. Otterton), Алан Тьюдик (Duke Weaselton), Шакира (Gazelle)
Роли дублировали: Мария Ивакова (Джуди Хоппс), Антон Лаврентьев (Ник Уайлд), Борис Хасанов (Капитан Буйволсон), Мария Аронова (Мисс Барашкис), Андрей Машков (Когтяузер), Татьяна Шитова (Бонни Хопс), Денис Некрасов (Стью Хопс), Денис Некрасов (Якс), Владимир Меньшов (Мэр Златогрив), Инга Сметанина (Миссис Выдрингтон), Филипп Лебедев (Дюк Хорьковиц), Варвара Чабан (Газелле)
О фильме:
Добро пожаловать в Зверополис - современный город, населенный самыми разными животными, от огромных слонов до крошечных мышек. Зверополис разделен на районы, полностью повторяющие естественную среду обитания разных жителей - здесь есть и элитный район Площадь Сахары и неприветливый Тундратаун. В этом городе появляется новый офицер полиции, жизнерадостная зайчиха Джуди Хоппс, которая с первых дней работы понимает, как сложно быть маленькой и пушистой среди больших и сильных полицейских. Джуди хватается за первую же возможность проявить себя, несмотря на то, что ее партнером будет болтливый хитрый лис Ник Уайлд. Вдвоем им предстоит раскрыть сложное дело, от которого будет зависеть судьба всех обитателей Зверополиса.

Кодек: H.264
Качество: TeleCine 720p
Видео: 1280x532, (2.40:1), 23.976 fps, 1 969 Kbps, 0.121 bit/pixel
Звук:
Аудио 1: 48 kHz, AC3 Dolby Digital, 2/0 (L,R) ch, ~192 kbps [DUB]
Аудио 2: 48 kHz, MP3, 2/0 (L,R) ch, ~192 kbps [Eng]
Субтитры: отсутствуют
Доп. информация: Местами присутствуют китайские субтитры, периодически появляется водяной знак в нижнем правом углу.





General
Complete name : Zveropolis.2016.TC[retouch].Dub.Eng.1.76Gb
Format : Matroska
Format version : Version 4 / Version 2
File size : 1.76 GiB
Duration : 1h 47mn
Overall bit rate : 2 355 Kbps
Encoded date : UTC 2016-05-08 07:30:48
Writing application : mkvmerge v9.1.0 ('Little Earthquakes') 64bit
Writing library : libebml v1.3.3 + libmatroska v1.4.4
Video
ID : 1
Format : AVC
Format/Info : Advanced Video Codec
Format profile : High@L3.1
Format settings, CABAC : Yes
Format settings, ReFrames : 1 frame
Format settings, GOP : M=1, N=25
Codec ID : V_MPEG4/ISO/AVC
Duration : 1h 47mn
Bit rate : 1 969 Kbps
Width : 1 280 pixels
Height : 532 pixels
Display aspect ratio : 2.40:1
Frame rate mode : Constant
Frame rate : 23.976 (24000/1001) fps
Standard : Component
Color space : YUV
Chroma subsampling : 4:2:0
Bit depth : 8 bits
Scan type : Progressive
Bits/(Pixel*Frame) : 0.121
Stream size : 1.47 GiB (84%)
Title : Zveropolis [retouch]
Default : Yes
Forced : No
Color range : Limited
Audio #1
ID : 2
Format : AC-3
Format/Info : Audio Coding 3
Mode extension : CM (complete main)
Format settings, Endianness : Big
Codec ID : A_AC3
Duration : 1h 47mn
Bit rate mode : Constant
Bit rate : 192 Kbps
Channel(s) : 2 channels
Channel positions : Front: L R
Sampling rate : 48.0 KHz
Frame rate : 31.250 fps (1536 spf)
Compression mode : Lossy
Stream size : 147 MiB (8%)
Title : Dub [Line]
Language : Russian
Default : Yes
Forced : No
Audio #2
ID : 3
Format : MPEG Audio
Format version : Version 1
Format profile : Layer 3
Mode : Joint stereo
Mode extension : MS Stereo
Codec ID : A_MPEG/L3
Codec ID/Hint : MP3
Duration : 1h 47mn
Bit rate mode : Constant
Bit rate : 192 Kbps
Channel(s) : 2 channels
Sampling rate : 44.1 KHz
Frame rate : 38.276 fps (1152 spf)
Compression mode : Lossy
Delay relative to video : 24ms
Stream size : 147 MiB (8%)
Title : Eng [Line]
Language : English
Default : No
Forced : No


По поводу размера:
Ввиду низкого качества исходника нет смысла завышать битрейт
Качество картинки:
Была проведена ребалансировка белого цвета и небольшие корректировки других параметров изображения |Смотрите под спойлер "Сравнение с исходником"|
Засветы:
Засветы светлых сцен победить без явных потерь не удалось, пришлось их оставить нетронутыми
Для особо изыскательных:
Добавлена английская дорожка |line|

Релиз от: Maxaon22



   Похожие торренты   Торрент   Размер 
В этой теме нет новых непрочитанных сообщений. Зверополис / Zootopia (2016) BDRip 720p | D | Line

4908 | 166

3.61 ГБ

В этой теме нет новых непрочитанных сообщений. Зверополис / Zootopia (2016) BDRip 720p | D | Line

213 | 17

3.42 ГБ

В этой теме нет новых непрочитанных сообщений. Зверополис / Zootopia (2016) BDRip 720p | D | Line

3892 | 51

4.2 ГБ

В этой теме нет новых непрочитанных сообщений. Зверополис / Zootopia (2016) WEBRip 720p | D | Line

375 | 12

1.22 ГБ

В этой теме нет новых непрочитанных сообщений. Зверополис / Zootopia (2016) WEBRip 720p | Line

2767 | 31

2.4 ГБ

В этой теме нет новых непрочитанных сообщений. Зверополис / Zootopia (2016) BDRip 720p | D | Line

884 | 24

3.42 ГБ

В этой теме нет новых непрочитанных сообщений. Зверополис / Zootopia (2016) WEBRip | D | Line

783 | 6

1.46 ГБ




Вы не можете начинать темы
Вы не можете отвечать на сообщения
Вы не можете редактировать свои сообщения
Вы не можете удалять свои сообщения
Вы не можете добавлять вложения

Перейти:  
Для Мосгорсуда, Роскомнадзора и рекламодателей: mosgorsud-torrent[собачка]yandex.ru
 Вход
ppkBB3cker v.2 © 2008-2014 @ PPK
[ Time : 0.533s | 19 Queries | GZIP : Off ]

Торрент трекер RUTOR.IN, Не можете зайти на rutor.org? Какой новый адрес рутор? Какое зеркало рутор? Не работает rutor.org и зеркала? Тогда наш торрент специально для вас. Rutor.in неофициальное зеркало rutor. В случае если у Вас заблокирован rutor или вдруг Вы не можете на него зайти, то Вы без труда сможете скачать бесплатно и без рекламы последние новинки кино, игр, сериалов и прочего у нас, на Rutor.in. Не нужно использовать прокси, чтобы зайти на рутор, достаточно воспользоваться нашим ресурсом. Все новые фильмы, игры, сериалы, книги и музыка за 2013 и 2014 годы через торрент бесплатно. Скачивайте фильмы в хорошем качестве, игры для пк, xbox, playstation без регистрации. У нас вы найдете новые Зарубежные сериалы и Русские сериалы 2013, 2014, 2015 годов. Оставайтесь с нами, качайте любимые фильмы, игры, сериалы, книги и музыку.
cron