img image001 image001 image001 image001 image001 image001 image001 image001 image001 image001 image001 image001 image001 image001 image001

Planets Sun Sun Sun
Статистика раздачи
Автор: Nickolas3434 | Размер: 1.46 ГБ | Добавлен: 21 май 2016
Раздают: 783    Качают: 6
Скачать торрент
Скачать торрент
Описание торрента

СообщениеДобавлено: 21 май 2016 


Зверополис / Zootopia
Страна: США
Производство: Walt Disney Animation Studios, Walt Disney Pictures
Год выпуска: 2016
Жанр: мультфильм, боевик, комедия, криминал, приключения, семейный
Продолжительность: 01:47:14
Режиссеры: Байрон Ховард, Рич Мур, Джаред Буш
Авторы сценария: Джаред Буш, Фил Джонстон, Байрон Ховард
В ролях: Джиннифер Гудвин, Джейсон Бейтман, Идрис Эльба, Дженни Слейт, Нейт Торренс, Бонни Хант
Роли дублировали: Мария Ивакова, Антон Лаврентьев, Борис Хасанов, Мария Аронова, Андрей Мошков
Описание: Добро пожаловать в Зверополис — современный город, населенный самыми разными животными, от огромных слонов до крошечных мышек. Зверополис разделен на районы, полностью повторяющие естественную среду обитания разных жителей — здесь есть и элитный район Площадь Сахары и неприветливый Тундратаун. В этом городе появляется новый офицер полиции, жизнерадостная зайчиха Джуди Хоппс, которая с первых дней работы понимает, как сложно быть маленькой и пушистой среди больших и сильных полицейских. Джуди хватается за первую же возможность проявить себя, несмотря на то, что ее партнером будет болтливый хитрый лис Ник Уайлд. Вдвоем им предстоит раскрыть сложное дело, от которого будет зависеть судьба всех обитателей Зверополиса...

Перевод: Профессиональный (полное дублирование) | чистый звук
Субтитры: китайские (вшитые) | местами

Качество: WEBRip
Формат: AVI
Видео кодек: AVC
Аудио кодек: АС3
Видео: 720x304 (2.35:1), 25.000 fps, XviD ~3 186 kbps avg, 0.455 bit/pixel
Аудио: 48.0 kHz, AC3 Dolby Digital, 2/0 (L,R) ch, ~192 kbps
Дата премьеры (мир): 11 февраля 2016
Дата премьеры (РФ): 3 марта 2016, «WDSSPR»
релиз на DVD, Blu-Ray: 3 июня 2016, «Уолт Дисней Компани СНГ»

General
Format : AVI
Format/Info : Audio Video Interleave
Overall bit rate : 2 692 Kbps
Movie name : Zveropolis.2O16.D.WEB-DLRip.1400MB
Writing application : VirtualDubMod 1.5.10.3 | (build 2550/release)
Writing library : VirtualDubMod build 2550/release
Copyright : MoreFilms
Video
ID : 0
Format : MPEG-4 Visual
Format profile : Advanced Simple@L5
Format settings, BVOP : 2
Format settings, QPel : No
Format settings, GMC : No warppoints
Format settings, Matrix : Custom
Codec ID : XVID
Codec ID/Hint : XviD
Bit rate : 2 489 Kbps
Width : 720 pixels
Height : 304 pixels
Display aspect ratio : 2.35:1
Frame rate : 25.000 fps
Color space : YUV
Chroma subsampling : 4:2:0
Bit depth : 8 bits
Scan type : Progressive
Compression mode : Lossy
Bits/(Pixel*Frame) : 0.455
Stream size : 22.7 MiB (92%)
Writing library : XviD 1.2.1 (UTC 2008-12-04)
Audio
ID : 1
Format : AC-3
Format/Info : Audio Coding 3
Mode extension : CM (complete main)
Format settings, Endianness : Big
Codec ID : 2000
Bit rate mode : Constant
Bit rate : 192 Kbps
Channel(s) : 2 channels
Channel positions : Front: L R
Sampling rate : 48.0 KHz
Compression mode : Lossy
Stream size : 1.75 MiB (7%)
Alignment : Split accross interleaves
Interleave, duration : 40 ms (1.01 video frame)
Interleave, preload duration : 500 ms




   Похожие торренты   Торрент   Размер 
В этой теме нет новых непрочитанных сообщений. Зверополис / Zootopia (2016) WEBRip-AVC | Line

83 | 2

1.46 ГБ

В этой теме нет новых непрочитанных сообщений. Зверополис / Zootopia (2016) WEBRip 720p | D | Line

375 | 12

1.22 ГБ

В этой теме нет новых непрочитанных сообщений. Зверополис / Zootopia (2016) WEBRip 1080p | D | Line

1910 | 18

2.5 ГБ

В этой теме нет новых непрочитанных сообщений. Зверополис / Zootopia (2016) WEBRip от GeneralFilm | D | Line

609 | 18

751.46 МБ

В этой теме нет новых непрочитанных сообщений. Зверополис / Zootopia (2016) WEBRip 720p | Line

2767 | 31

2.4 ГБ

В этой теме нет новых непрочитанных сообщений. Зверополис / Zootopia (2016) HDRip | Line

2802 | 194

2.05 ГБ

В этой теме нет новых непрочитанных сообщений. Зверополис / Zootopia (2016) TC от Twi7ter | D | Line

2710 | 30

1.46 ГБ




Вы не можете начинать темы
Вы не можете отвечать на сообщения
Вы не можете редактировать свои сообщения
Вы не можете удалять свои сообщения
Вы не можете добавлять вложения

Перейти:  
Для Мосгорсуда, Роскомнадзора и рекламодателей: mosgorsud-torrent[собачка]yandex.ru
 Вход
ppkBB3cker v.2 © 2008-2014 @ PPK
[ Time : 0.026s | 14 Queries | GZIP : Off ]

Торрент трекер RUTOR.IN, Не можете зайти на rutor.org? Какой новый адрес рутор? Какое зеркало рутор? Не работает rutor.org и зеркала? Тогда наш торрент специально для вас. Rutor.in неофициальное зеркало rutor. В случае если у Вас заблокирован rutor или вдруг Вы не можете на него зайти, то Вы без труда сможете скачать бесплатно и без рекламы последние новинки кино, игр, сериалов и прочего у нас, на Rutor.in. Не нужно использовать прокси, чтобы зайти на рутор, достаточно воспользоваться нашим ресурсом. Все новые фильмы, игры, сериалы, книги и музыка за 2013 и 2014 годы через торрент бесплатно. Скачивайте фильмы в хорошем качестве, игры для пк, xbox, playstation без регистрации. У нас вы найдете новые Зарубежные сериалы и Русские сериалы 2013, 2014, 2015 годов. Оставайтесь с нами, качайте любимые фильмы, игры, сериалы, книги и музыку.