img image001 image001 image001 image001 image001 image001 image001 image001 image001 image001 image001 image001 image001 image001 image001

Planets Sun Sun Sun
Статистика раздачи
Автор: Nickolas3434 | Размер: 1.93 ГБ | Добавлен: 21 май 2016
Раздают: 774    Качают: 28
Скачать торрент
Скачать торрент
Описание торрента

СообщениеДобавлено: 21 май 2016 


Информация о фильме
Оригинальное название: Волки и овцы: бе-е-е-зумное превращение
Год выпуска: 2016
Жанр: Мультфильм, полнометражный, семейный, комедия, приключения
Выпущено: Россия, Кинокомпания CTB, Wizart Animation
Режиссер: Максим Волков, Андрей Галат
В ролях: Александр Петров, Елизавета Боярская, Сергей Безруков, Екатерина Иванчикова, Юрий Гальцев, Андрей Рожков, Татьяна Шитова, Диомид Виноградов, Андрей Бархударов, Дмитрий Филимонов
О фильме: Любимцу стаи, молодому и беззаботному волку Серому невдомек, что скоро он окажется чужим среди своих друзей. Претендуя на роль вожака стаи и на руку (вернее, лапу) и сердце самой красивой волчицы Бьянки, Серый продолжает дурачиться и устраивать розыгрыши над сородичами. Все переворачивается с ног на голову, когда он решает изменить себя с помощью волшебного зелья. Чудо действительно происходит: Серый превращается в барана! Опасаясь за свою, теперь овечью, шкуру, Серый сбегает от волков и поселяется в деревне овец.

Файл
Качество: WEB-DLRip (AVC)
Видео: MPEG-4 AVC, 2868 Кбит/с, 1024x248, 24 кадр/с
Аудио: AC3, 6 ch, 384 Кбит/с
Размер: 1.93 ГБ
Продолжительность: 01:24:42
Язык: Русский
Озвучивание - (iTunes Russia)
Сохранены оригинальные чаптеры как на исходном WEB-DL.
x264 [info]: frame I:1065 Avg QP:16.02 size:110622
x264 [info]: frame P:35615 Avg QP:19.12 size: 27828
x264 [info]: frame B:85289 Avg QP:21.26 size: 8360
x264 [info]: consecutive B-frames: 4.9% 6.9% 6.8% 69.2% 4.6% 6.4% 0.3% 0.3% 0.1% 0.4%
x264 [info]: mb I I16..4: 2.6% 56.2% 41.2%
x264 [info]: mb P I16..4: 0.3% 10.2% 2.3% P16..4: 23.8% 25.6% 16.5% 5.0% 1.0% skip:15.4%
x264 [info]: mb B I16..4: 0.0% 1.9% 0.4% B16..8: 22.2% 18.2% 5.1% direct: 5.9% skip:46.2% L0:30.3% L1:43.8% BI:25.9%
x264 [info]: 8x8 transform intra:77.3% inter:44.5%
x264 [info]: direct mvs spatial:96.1% temporal:3.9%
x264 [info]: coded y,uvDC,uvAC intra: 96.0% 97.6% 89.3% inter: 25.2% 25.0% 16.8%
x264 [info]: i16 v,h,dc,p: 6% 10% 5% 80%
x264 [info]: i8 v,h,dc,ddl,ddr,vr,hd,vl,hu: 10% 10% 6% 9% 12% 12% 13% 13% 16%
x264 [info]: i4 v,h,dc,ddl,ddr,vr,hd,vl,hu: 12% 9% 4% 8% 15% 13% 14% 11% 14%
x264 [info]: i8c dc,h,v,p: 44% 20% 15% 21%
x264 [info]: Weighted P-Frames: Y:1.7% UV:1.0%
x264 [info]: ref P L0: 59.9% 13.9% 11.4% 4.2% 3.0% 1.9% 1.6% 0.9% 0.9% 0.7% 0.7% 0.7% 0.1% 0.0%
x264 [info]: ref B L0: 86.5% 6.1% 2.6% 1.4% 1.1% 0.7% 0.5% 0.4% 0.3% 0.2% 0.1%
x264 [info]: ref B L1: 96.4% 3.6%
x264 [info]: kb/s:2868.08

Общее
Уникальный идентификатор : 179159518552713603660595047393496695324 (0x86C8DE3FC0532A37BCC3D13FBB94821C)
Полное имя : D:ЗагрузкиVolki.I.Ovci.2016.x264.WEB-DLRip.AVC.ExKinoRay.mkv
Формат : Matroska
Версия формата : Version 2
Размер файла : 1,93 Гбайт
Продолжительность : 1 ч. 24 м.
Общий поток : 3254 Кбит/сек
Название фильма : Волки и овцы: бе-е-е-зумное превращение.2016.Rip by: ollan
Дата кодирования : UTC 2016-05-18 19:47:57
Программа кодирования : mkvmerge v5.6.0 ('Kenya Kane') built on May 27 2012 16:44:04
Библиотека кодирования : libebml v1.2.3 + libmatroska v1.3.0
Attachements : Cover - Volki.I.Ovci.png
Видео
Идентификатор : 1
Формат : AVC
Формат/Информация : Advanced Video Codec
Профиль формата : High@L4.1
Параметр CABAC формата : Да
Параметр ReFrames формата : 12 кадров
Идентификатор кодека : V_MPEG4/ISO/AVC
Продолжительность : 1 ч. 24 м.
Битрейт : 2868 Кбит/сек
Ширина : 1024 пикселя
Высота : 428 пикселей
Соотношение сторон : 2,40:1
Режим частоты кадров : Постоянный
Частота кадров : 24,000 кадра/сек
Цветовое пространство : YUV
Субдискретизация насыщенности : 4:2:0
Битовая глубина : 8 бит
Тип развёртки : Прогрессивная
Бит/(Пиксели*Кадры) : 0.273
Размер потока : 1,66 Гбайт (86%)
Библиотека кодирования : x264 core 146 r2538 121396c
Настройки программы : cabac=1 / ref=12 / deblock=1:-3:-3 / analyse=0x3:0x133 / me=umh / subme=11 / psy=1 / psy_rd=1.00:0.05 / mixed_ref=1 / me_range=48 / chroma_me=1 / trellis=2 / 8x8dct=1 / cqm=0 / deadzone=21,11 / fast_pskip=0 / chroma_qp_offset=-3 / threads=12 / lookahead_threads=2 / sliced_threads=0 / nr=0 / decimate=0 / interlaced=0 / bluray_compat=0 / constrained_intra=0 / bframes=9 / b_pyramid=2 / b_adapt=2 / b_bias=0 / direct=3 / weightb=1 / open_gop=0 / weightp=2 / keyint=240 / keyint_min=23 / scenecut=40 / intra_refresh=0 / rc_lookahead=40 / rc=2pass / mbtree=0 / bitrate=2868 / ratetol=1.0 / qcomp=0.60 / qpmin=0 / qpmax=69 / qpstep=4 / cplxblur=20.0 / qblur=0.5 / vbv_maxrate=50000 / vbv_bufsize=62500 / nal_hrd=none / filler=0 / ip_ratio=1.40 / pb_ratio=1.30 / aq=1:1.00
Язык : Russian
Default : Да
Forced : Нет
Аудио
Идентификатор : 2
Формат : AC-3
Формат/Информация : Audio Coding 3
Расширение режима : CM (complete main)
Параметр Endianness формата : Big
Идентификатор кодека : A_AC3
Продолжительность : 1 ч. 24 м.
Вид битрейта : Постоянный
Битрейт : 384 Кбит/сек
Каналы : 6 каналов
Расположение каналов : Front: L C R, Side: L R, LFE
Частота : 48,0 КГц
Частота кадров : 31,250 кадров/сек (1536 spf)
Метод сжатия : С потерями
Размер потока : 233 Мбайт (12%)
Заголовок : iTunes Russia
Язык : Russian
Default : Да
Forced : Нет
Меню
00:00:00.000 : ru:Chapter 01
00:07:15.583 : ru:Chapter 02
00:12:27.833 : ru:Chapter 03
00:20:15.791 : ru:Chapter 04
00:26:23.791 : ru:Chapter 05
00:31:57.166 : ru:Chapter 06
00:38:49.082 : ru:Chapter 07
00:44:24.957 : ru:Chapter 08
00:50:30.540 : ru:Chapter 09
00:56:20.790 : ru:Chapter 10
01:02:49.081 : ru:Chapter 11
01:09:37.581 : ru:Chapter 12
01:16:37.831 : ru:Chapter 13





Релиз от: Rip by:



   Похожие торренты   Торрент   Размер 
В этой теме нет новых непрочитанных сообщений. Волки и овцы: бе-е-е-зумное превращение (2016) WEB-DLRip | iTunes

28767 | 561

1.37 ГБ

В этой теме нет новых непрочитанных сообщений. Волки и овцы: бе-е-е-зумное превращение (2016) WEB-DLRip от Generalfilm | КПК | iTunes

827 | 14

378.61 МБ

В этой теме нет новых непрочитанных сообщений. Волки и овцы: бе-е-е-зумное превращение (2016) WEB-DLRip-AVC от New-Team | iTunes

675 | 27

745.71 МБ

В этой теме нет новых непрочитанных сообщений. Волки и овцы: бе-е-е-зумное превращение (2016) WEB-DLRip-AVC от New-Team | iTunes

2913 | 149

1.46 ГБ

В этой теме нет новых непрочитанных сообщений. Волки и овцы: бе-е-е-зумное превращение (2016) WEB-DLRip от MegaPeer | iTunes

1357 | 48

744.08 МБ

В этой теме нет новых непрочитанных сообщений. Волки и овцы: бе-е-е-зумное превращение (2016) WEB-DL 1080p | iTunes

4231 | 116

2.91 ГБ

В этой теме нет новых непрочитанных сообщений. Волки и овцы: бе-е-е-зумное превращение (2016) WEB-DL 720p | iTunes

4241 | 112

2.61 ГБ




Вы не можете начинать темы
Вы не можете отвечать на сообщения
Вы не можете редактировать свои сообщения
Вы не можете удалять свои сообщения
Вы не можете добавлять вложения

Перейти:  
Для Мосгорсуда, Роскомнадзора и рекламодателей: mosgorsud-torrent[собачка]yandex.ru
 Вход
ppkBB3cker v.2 © 2008-2014 @ PPK
[ Time : 0.039s | 14 Queries | GZIP : Off ]

Торрент трекер RUTOR.IN, Не можете зайти на rutor.org? Какой новый адрес рутор? Какое зеркало рутор? Не работает rutor.org и зеркала? Тогда наш торрент специально для вас. Rutor.in неофициальное зеркало rutor. В случае если у Вас заблокирован rutor или вдруг Вы не можете на него зайти, то Вы без труда сможете скачать бесплатно и без рекламы последние новинки кино, игр, сериалов и прочего у нас, на Rutor.in. Не нужно использовать прокси, чтобы зайти на рутор, достаточно воспользоваться нашим ресурсом. Все новые фильмы, игры, сериалы, книги и музыка за 2013 и 2014 годы через торрент бесплатно. Скачивайте фильмы в хорошем качестве, игры для пк, xbox, playstation без регистрации. У нас вы найдете новые Зарубежные сериалы и Русские сериалы 2013, 2014, 2015 годов. Оставайтесь с нами, качайте любимые фильмы, игры, сериалы, книги и музыку.