img image001 image001 image001 image001 image001 image001 image001 image001 image001 image001 image001 image001 image001 image001 image001

Planets Sun Sun Sun
Статистика раздачи
Автор: Nickolas3434 | Размер: 3.42 ГБ | Добавлен: 21 май 2016
Раздают: 279    Качают: 20
Скачать торрент
Скачать торрент
Описание торрента

СообщениеДобавлено: 21 май 2016 

Информация о фильме
Название: Зверополис
Оригинальное название: Zootopia
Год выхода: 2016
Страна: США
Студия: Walt Disney Pictures, Walt Disney Animation Studios
Жанр: мультфильм, боевик, комедия, криминал, приключения
Продолжительность: 01:48:32
Перевод: Профессиональный (дублированный) |line|
Режиссер: Байрон Ховард (Byron Howard), Рич Мур (Rich Moore), Джаред Буш (Jared Bush)
Роли озвучивали: Джиннифер Гудвин (Judy Hopps), Джейсон Бейтман (Nick Wilde), Идрис Эльба (Chief Bogo), Дженни Слейт (Bellwether), Нейт Торренс (Clawhauser), Бонни Хант (Bonnie Hopps), Дон Лейк (Stu Hopps), Томми Чонг (Yax), Дж.К. Симмонс (Mayor Lionheart), Октавия Спенсер (Mrs. Otterton), Алан Тьюдик (Duke Weaselton), Шакира (Gazelle)
Роли дублировали: Мария Ивакова (Джуди Хоппс), Антон Лаврентьев (Ник Уайлд), Борис Хасанов (Капитан Буйволсон), Мария Аронова (Мисс Барашкис), Андрей Машков (Когтяузер), Татьяна Шитова (Бонни Хопс), Денис Некрасов (Стью Хопс), Денис Некрасов (Якс), Владимир Меньшов (Мэр Златогрив), Инга Сметанина (Миссис Выдрингтон), Филипп Лебедев (Дюк Хорьковиц), Варвара Чабан (Газелле)
О фильме:
Добро пожаловать в Зверополис - современный город, населенный самыми разными животными, от огромных слонов до крошечных мышек. Зверополис разделен на районы, полностью повторяющие естественную среду обитания разных жителей - здесь есть и элитный район Площадь Сахары и неприветливый Тундратаун. В этом городе появляется новый офицер полиции, жизнерадостная зайчиха Джуди Хоппс, которая с первых дней работы понимает, как сложно быть маленькой и пушистой среди больших и сильных полицейских. Джуди хватается за первую же возможность проявить себя, несмотря на то, что ее партнером будет болтливый хитрый лис Ник Уайлд. Вдвоем им предстоит раскрыть сложное дело, от которого будет зависеть судьба всех обитателей Зверополиса.
Доп. информация:
Сэмпл
Файл
Формат: MKV
Качество: BDRip 720p
Видео: MPEG4-AVC, 1280x536, (2.40:1), 23.976 fps, 2 812 Kbps, 0.171 bit/pixel
Звук #1: AC3 2.0, 192 Kbps, 48.0 KHz - русский (дубляж, чистый звук)
Звук #1: DTS 5.1 1509 Kbps, 48.0 KHz, 24 bits - английский (оригинал)
Главы: есть
Субтитры: нет
За основу взят: Zootopia.2016.720p.BluRay.x264-SPARKS
Zootopia.2016.720p.BluRay.x264.D(Line).Eng.mkv
Format : Matroska
Format version : Version 2
File size : 3.42 GiB
Duration : 1h 48mn
Overall bit rate : 4 515 Kbps
Movie name : -merci-
Encoded date : UTC 2016-05-20 04:18:03
Writing application : mkvmerge v5.8.0 ('No Sleep / Pillow') built on Sep 2 2012 15:37:04
Writing library : libebml v1.2.3 + libmatroska v1.3.0
Video
ID : 1
Format : AVC
Format/Info : Advanced Video Codec
Format profile : High@L4.1
Format settings, CABAC : Yes
Format settings, ReFrames : 5 frames
Codec ID : V_MPEG4/ISO/AVC
Duration : 1h 48mn
Bit rate : 2 812 Kbps
Width : 1 280 pixels
Height : 536 pixels
Display aspect ratio : 2.40:1
Frame rate mode : Constant
Frame rate : 23.976 fps
Color space : YUV
Chroma subsampling : 4:2:0
Bit depth : 8 bits
Scan type : Progressive
Bits/(Pixel*Frame) : 0.171
Stream size : 2.07 GiB (60%)
Title : Zootopia.2016.720p.BluRay.x264-SPARKS
Writing library : x264 core 148 r2692 64f4e24
Encoding settings : cabac=1 / ref=5 / deblock=1:0:0 / analyse=0x3:0x133 / me=umh / subme=7 / psy=1 / psy_rd=1.00:0.00 / mixed_ref=1 / me_range=16 / chroma_me=1 / trellis=1 / 8x8dct=1 / cqm=0 / deadzone=21,11 / fast_pskip=0 / chroma_qp_offset=-2 / threads=17 / lookahead_threads=2 / sliced_threads=0 / nr=0 / decimate=1 / interlaced=0 / bluray_compat=0 / constrained_intra=0 / bframes=3 / b_pyramid=2 / b_adapt=1 / b_bias=0 / direct=1 / weightb=1 / open_gop=0 / weightp=2 / keyint=250 / keyint_min=23 / scenecut=40 / intra_refresh=0 / rc_lookahead=40 / rc=2pass / mbtree=1 / bitrate=2812 / ratetol=1.0 / qcomp=0.60 / qpmin=0 / qpmax=69 / qpstep=4 / cplxblur=20.0 / qblur=0.5 / ip_ratio=1.40 / aq=1:1.00
Language : English
Default : Yes
Forced : No
Audio #1
ID : 2
Format : AC-3
Format/Info : Audio Coding 3
Mode extension : CM (complete main)
Format settings, Endianness : Big
Codec ID : A_AC3
Duration : 1h 48mn
Bit rate mode : Constant
Bit rate : 192 Kbps
Channel(s) : 2 channels
Channel positions : Front: L R
Sampling rate : 48.0 KHz
Frame rate : 31.250 fps (1536 spf)
Compression mode : Lossy
Stream size : 149 MiB (4%)
Title : Dub (Line)
Language : Russian
Default : Yes
Forced : No
Audio #2
ID : 3
Format : DTS
Format/Info : Digital Theater Systems
Mode : 16
Format settings, Endianness : Big
Codec ID : A_DTS
Duration : 1h 48mn
Bit rate mode : Constant
Bit rate : 1 509 Kbps
Channel(s) : 6 channels
Channel positions : Front: L C R, Side: L R, LFE
Sampling rate : 48.0 KHz
Frame rate : 93.750 fps (512 spf)
Bit depth : 24 bits
Compression mode : Lossy
Stream size : 1.14 GiB (33%)
Language : English
Default : No
Forced : No
Menu
00:00:00.000 : en:00:00:00.000
00:00:59.559 : en:00:00:59.559
00:05:50.100 : en:00:05:50.100
00:10:05.563 : en:00:10:05.563
00:14:31.537 : en:00:14:31.537
00:18:24.019 : en:00:18:24.019
00:26:03.353 : en:00:26:03.353
00:30:57.439 : en:00:30:57.439
00:37:07.100 : en:00:37:07.100
00:40:43.441 : en:00:40:43.441
00:44:31.752 : en:00:44:31.752
00:51:40.430 : en:00:51:40.430
00:55:40.378 : en:00:55:40.378
01:00:48.269 : en:01:00:48.269
01:03:37.855 : en:01:03:37.855
01:09:19.822 : en:01:09:19.822
01:13:39.165 : en:01:13:39.165
01:17:07.372 : en:01:17:07.372
01:21:52.366 : en:01:21:52.366
01:28:19.169 : en:01:28:19.169
01:32:43.433 : en:01:32:43.433
01:36:12.141 : en:01:36:12.141


Релиз от:



   Похожие торренты   Торрент   Размер 
В этой теме нет новых непрочитанных сообщений. Зверополис / Zootopia (2016) BDRip 720p | D | Line

3892 | 51

4.2 ГБ

В этой теме нет новых непрочитанных сообщений. Зверополис / Zootopia (2016) BDRip 720p | D | Line

884 | 24

3.42 ГБ

В этой теме нет новых непрочитанных сообщений. Зверополис / Zootopia (2016) BDRip 720p | D | Line

4908 | 166

3.61 ГБ

В этой теме нет новых непрочитанных сообщений. Зверополис / Zootopia (2016) TC 720p от Maxaon22 | D | Line

1805 | 18

1.76 ГБ

В этой теме нет новых непрочитанных сообщений. Зверополис / Zootopia (2016) WEBRip 720p | D | Line

375 | 12

1.22 ГБ

В этой теме нет новых непрочитанных сообщений. Зверополис / Zootopia (2016) WEBRip 720p | Line

2767 | 31

2.4 ГБ

В этой теме нет новых непрочитанных сообщений. Зверополис / Zootopia (2016) BDRip-AVC от teleport2222 | D | Line

628 | 16

2.19 ГБ




Вы не можете начинать темы
Вы не можете отвечать на сообщения
Вы не можете редактировать свои сообщения
Вы не можете удалять свои сообщения
Вы не можете добавлять вложения

Перейти:  
Для Мосгорсуда, Роскомнадзора и рекламодателей: mosgorsud-torrent[собачка]yandex.ru
 Вход
ppkBB3cker v.2 © 2008-2014 @ PPK
[ Time : 0.586s | 15 Queries | GZIP : Off ]

Торрент трекер RUTOR.IN, Не можете зайти на rutor.org? Какой новый адрес рутор? Какое зеркало рутор? Не работает rutor.org и зеркала? Тогда наш торрент специально для вас. Rutor.in неофициальное зеркало rutor. В случае если у Вас заблокирован rutor или вдруг Вы не можете на него зайти, то Вы без труда сможете скачать бесплатно и без рекламы последние новинки кино, игр, сериалов и прочего у нас, на Rutor.in. Не нужно использовать прокси, чтобы зайти на рутор, достаточно воспользоваться нашим ресурсом. Все новые фильмы, игры, сериалы, книги и музыка за 2013 и 2014 годы через торрент бесплатно. Скачивайте фильмы в хорошем качестве, игры для пк, xbox, playstation без регистрации. У нас вы найдете новые Зарубежные сериалы и Русские сериалы 2013, 2014, 2015 годов. Оставайтесь с нами, качайте любимые фильмы, игры, сериалы, книги и музыку.