img image001 image001 image001 image001 image001 image001 image001 image001 image001 image001 image001 image001 image001 image001 image001

Planets Sun Sun Sun
Статистика раздачи
Автор: Nickolas3434 | Размер: 5.61 ГБ | Добавлен: 21 май 2016
Раздают: 966    Качают: 31
Скачать торрент
Скачать торрент
Описание торрента

СообщениеДобавлено: 21 май 2016 

Информация о фильме
Название: Зверополис
Оригинальное название: Zootopia
Год выхода: 2016
Страна: США
Студия: Walt Disney Pictures, Walt Disney Animation Studios
Жанр: мультфильм, боевик, комедия, криминал, приключения
Продолжительность: 01:48:32
Перевод: Профессиональный (дублированный) |line|
Режиссер: Байрон Ховард (Byron Howard), Рич Мур (Rich Moore), Джаред Буш (Jared Bush)
Роли озвучивали: Джиннифер Гудвин (Judy Hopps), Джейсон Бейтман (Nick Wilde), Идрис Эльба (Chief Bogo), Дженни Слейт (Bellwether), Нейт Торренс (Clawhauser), Бонни Хант (Bonnie Hopps), Дон Лейк (Stu Hopps), Томми Чонг (Yax), Дж.К. Симмонс (Mayor Lionheart), Октавия Спенсер (Mrs. Otterton), Алан Тьюдик (Duke Weaselton), Шакира (Gazelle)
Роли дублировали: Мария Ивакова (Джуди Хоппс), Антон Лаврентьев (Ник Уайлд), Борис Хасанов (Капитан Буйволсон), Мария Аронова (Мисс Барашкис), Андрей Машков (Когтяузер), Татьяна Шитова (Бонни Хопс), Денис Некрасов (Стью Хопс), Денис Некрасов (Якс), Владимир Меньшов (Мэр Златогрив), Инга Сметанина (Миссис Выдрингтон), Филипп Лебедев (Дюк Хорьковиц), Варвара Чабан (Газелле)
О фильме:
Добро пожаловать в Зверополис - современный город, населенный самыми разными животными, от огромных слонов до крошечных мышек. Зверополис разделен на районы, полностью повторяющие естественную среду обитания разных жителей - здесь есть и элитный район Площадь Сахары и неприветливый Тундратаун. В этом городе появляется новый офицер полиции, жизнерадостная зайчиха Джуди Хоппс, которая с первых дней работы понимает, как сложно быть маленькой и пушистой среди больших и сильных полицейских. Джуди хватается за первую же возможность проявить себя, несмотря на то, что ее партнером будет болтливый хитрый лис Ник Уайлд. Вдвоем им предстоит раскрыть сложное дело, от которого будет зависеть судьба всех обитателей Зверополиса.
Доп. информация:
Сэмпл
Файл
Формат: MKV
Качество: BDRip 1080p
Видео: MPEG4-AVC, 1920x808, (2.40:1), 23.976 fps, 5 697 Kbps, 0.153 bit/pixel
Звук #1: AC3 2.0, 192 Kbps, 48.0 KHz - русский (дубляж, чистый звук)
Звук #1: DTS 5.1 1509 Kbps, 48.0 KHz, 24 bits - английский (оригинал)
Главы: есть
Субтитры: нет
За основу взят: Zootopia.2016.1080p.BluRay.x264-SPARKS
Zootopia.2016.1080p.BluRay.x264.D(Line).Eng.mkv
Format : Matroska
Format version : Version 2
File size : 5.61 GiB
Duration : 1h 48mn
Overall bit rate : 7 400 Kbps
Movie name : -merci-
Encoded date : UTC 2016-05-20 05:08:31
Writing application : mkvmerge v5.8.0 ('No Sleep / Pillow') built on Sep 2 2012 15:37:04
Writing library : libebml v1.2.3 + libmatroska v1.3.0
Video
ID : 1
Format : AVC
Format/Info : Advanced Video Codec
Format profile : High@L4.1
Format settings, CABAC : Yes
Format settings, ReFrames : 5 frames
Codec ID : V_MPEG4/ISO/AVC
Duration : 1h 48mn
Bit rate : 5 697 Kbps
Width : 1 920 pixels
Height : 808 pixels
Display aspect ratio : 2.40:1
Frame rate mode : Constant
Frame rate : 23.976 fps
Color space : YUV
Chroma subsampling : 4:2:0
Bit depth : 8 bits
Scan type : Progressive
Bits/(Pixel*Frame) : 0.153
Stream size : 4.21 GiB (75%)
Title : Zootopia.2016.1080p.BluRay.x264-SPARKS
Writing library : x264 core 148 r2692 64f4e24
Encoding settings : cabac=1 / ref=5 / deblock=1:0:0 / analyse=0x3:0x133 / me=umh / subme=7 / psy=1 / psy_rd=1.00:0.00 / mixed_ref=1 / me_range=16 / chroma_me=1 / trellis=1 / 8x8dct=1 / cqm=0 / deadzone=21,11 / fast_pskip=0 / chroma_qp_offset=-2 / threads=18 / lookahead_threads=3 / sliced_threads=0 / nr=0 / decimate=1 / interlaced=0 / bluray_compat=0 / constrained_intra=0 / bframes=3 / b_pyramid=2 / b_adapt=1 / b_bias=0 / direct=1 / weightb=1 / open_gop=0 / weightp=2 / keyint=250 / keyint_min=23 / scenecut=40 / intra_refresh=0 / rc_lookahead=40 / rc=2pass / mbtree=1 / bitrate=5697 / ratetol=1.0 / qcomp=0.60 / qpmin=0 / qpmax=69 / qpstep=4 / cplxblur=20.0 / qblur=0.5 / ip_ratio=1.40 / aq=1:1.00
Language : English
Default : Yes
Forced : No
Audio #1
ID : 2
Format : AC-3
Format/Info : Audio Coding 3
Mode extension : CM (complete main)
Format settings, Endianness : Big
Codec ID : A_AC3
Duration : 1h 48mn
Bit rate mode : Constant
Bit rate : 192 Kbps
Channel(s) : 2 channels
Channel positions : Front: L R
Sampling rate : 48.0 KHz
Frame rate : 31.250 fps (1536 spf)
Compression mode : Lossy
Stream size : 149 MiB (3%)
Title : Dub (Line)
Language : Russian
Default : Yes
Forced : No
Audio #2
ID : 3
Format : DTS
Format/Info : Digital Theater Systems
Mode : 16
Format settings, Endianness : Big
Codec ID : A_DTS
Duration : 1h 48mn
Bit rate mode : Constant
Bit rate : 1 509 Kbps
Channel(s) : 6 channels
Channel positions : Front: L C R, Side: L R, LFE
Sampling rate : 48.0 KHz
Frame rate : 93.750 fps (512 spf)
Bit depth : 24 bits
Compression mode : Lossy
Stream size : 1.14 GiB (20%)
Language : English
Default : No
Forced : No
Menu
00:00:00.000 : en:00:00:00.000
00:00:59.559 : en:00:00:59.559
00:05:50.100 : en:00:05:50.100
00:10:05.563 : en:00:10:05.563
00:14:31.537 : en:00:14:31.537
00:18:24.019 : en:00:18:24.019
00:26:03.353 : en:00:26:03.353
00:30:57.439 : en:00:30:57.439
00:37:07.100 : en:00:37:07.100
00:40:43.441 : en:00:40:43.441
00:44:31.752 : en:00:44:31.752
00:51:40.430 : en:00:51:40.430
00:55:40.378 : en:00:55:40.378
01:00:48.269 : en:01:00:48.269
01:03:37.855 : en:01:03:37.855
01:09:19.822 : en:01:09:19.822
01:13:39.165 : en:01:13:39.165
01:17:07.372 : en:01:17:07.372
01:21:52.366 : en:01:21:52.366
01:28:19.169 : en:01:28:19.169
01:32:43.433 : en:01:32:43.433
01:36:12.141 : en:01:36:12.141


Релиз от:



   Похожие торренты   Торрент   Размер 
В этой теме нет новых непрочитанных сообщений. Зверополис / Zootopia (2016) BDRip 1080p | 3D-Video | OU | Line

110 | 19

13.99 ГБ

В этой теме нет новых непрочитанных сообщений. Зверополис / Zootopia (2016) BDRip 1080p от ExKinoRay | Line

1317 | 21

11.31 ГБ

В этой теме нет новых непрочитанных сообщений. Зверополис / Zootopia (2016) BDRip 1080p от Ash61 | 3D-Video | halfOU | Line

328 | 12

7.52 ГБ

В этой теме нет новых непрочитанных сообщений. Зверополис / Zootopia (2016) BDRip 1080p от Ash61 | 3D-Video | halfOU | Line

773 | 57

7.33 ГБ

В этой теме нет новых непрочитанных сообщений. Зверополис / Zootopia (2016) HDRip 1080p | D | Line

1261 | 18

2.87 ГБ

В этой теме нет новых непрочитанных сообщений. Зверополис / Zootopia (2016) WEBRip 1080p | D | Line

1104 | 9

2.5 ГБ

В этой теме нет новых непрочитанных сообщений. Зверополис / Zootopia (2016) BDRemux 1080p от ExKinoRay | Line

185 | 15

21.8 ГБ




Вы не можете начинать темы
Вы не можете отвечать на сообщения
Вы не можете редактировать свои сообщения
Вы не можете удалять свои сообщения
Вы не можете добавлять вложения

Перейти:  
Для Мосгорсуда, Роскомнадзора и рекламодателей: mosgorsud-torrent[собачка]yandex.ru
 Вход
ppkBB3cker v.2 © 2008-2014 @ PPK
[ Time : 0.046s | 16 Queries | GZIP : Off ]

cron