img image001 image001 image001 image001 image001 image001 image001 image001 image001 image001 image001 image001 image001 image001 image001

Planets Sun Sun Sun
Статистика раздачи
Автор: Nickolas3434 | Размер: 4.2 ГБ | Добавлен: 21 май 2016
Раздают: 3892    Качают: 51
Скачать торрент
Скачать торрент
Описание торрента

СообщениеДобавлено: 21 май 2016 

Информация о фильме
Название: Зверополис
Оригинальное название: Zootopia
Год выхода: 2016
Жанр: Мультфильм, боевик, комедия, криминал, приключения, семейный
Режиссер: Байрон Ховард, Рич Мур, Джаред Буш
В ролях: Джиннифер Гудвин, Джейсон Бейтман, Идрис Эльба, Дженни Слейт, Нейт Торренс, Бонни Хант
Роли дублировали: Мария Ивакова, Антон Лаврентьев, Борис Хасанов, Мария Аронова, Андрей Мошков
О фильме: Добро пожаловать в Зверополис — современный город, населенный самыми разными животными, от огромных слонов до крошечных мышек. Зверополис разделен на районы, полностью повторяющие естественную среду обитания разных жителей — здесь есть и элитный район Площадь Сахары и неприветливый Тундратаун. В этом городе появляется новый офицер полиции, жизнерадостная зайчиха Джуди Хоппс, которая с первых дней работы понимает, как сложно быть маленькой и пушистой среди больших и сильных полицейских. Джуди хватается за первую же возможность проявить себя, несмотря на то, что ее партнером будет болтливый хитрый лис Ник Уайлд. Вдвоем им предстоит раскрыть сложное дело, от которого будет зависеть судьба всех обитателей Зверополиса...


Выпущено: США / Walt Disney Animation Studios, Walt Disney Pictures
Продолжительность:01:48:23
Перевод: Дублированный [Чистый звук - Line]
Файл
Формат: MKV
Качество: BDRip 720p
Видео: MPEG-4 AVC, 3729 kb/s, 1280x536
Аудио: Russian: AC3, 192 kb/s (2 ch) / English: DTS, 1510 kb/s (6 ch)
Субтитры: отсутствуют
x264 [info]: frame I:1463 Avg QP:14.05 size:118483
x264 [info]: frame P:33958 Avg QP:15.25 size: 42475
x264 [info]: frame B:120722 Avg QP:17.11 size: 12466
Общее
Уникальный идентификатор : 230263652092091482057910922686961939863 (0xAD3B2A9076397C0F913A6A858FB9F597)
Полное имя : D:загрузкиZootopia.2016.D.BluRay.720p.mkv
Формат : Matroska
Версия формата : Version 4 / Version 2
Размер файла : 4,20 Гбайт
Продолжительность : 1 ч. 48 м.
Общий поток : 5537 Кбит/сек
Дата кодирования : UTC 2016-05-20 15:47:32
Программа кодирования : mkvmerge v8.3.0 ('Over the Horizon') 64bit
Библиотека кодирования : libebml v1.3.1 + libmatroska v1.4.2
Видео
Идентификатор : 1
Формат : AVC
Формат/Информация : Advanced Video Codec
Профиль формата : High@L4.1
Параметр CABAC формата : Да
Параметр ReFrames формата : 9 кадров
Идентификатор кодека : V_MPEG4/ISO/AVC
Продолжительность : 1 ч. 48 м.
Битрейт : 3726 Кбит/сек
Ширина : 1280 пикселей
Высота : 536 пикселей
Соотношение сторон : 2,40:1
Режим частоты кадров : Постоянный
Частота кадров : 23,976 кадра/сек
Цветовое пространство : YUV
Субдискретизация насыщенности : 4:2:0
Битовая глубина : 8 бит
Тип развёртки : Прогрессивная
Бит/(Пиксели*Кадры) : 0.226
Размер потока : 2,82 Гбайт (67%)
Библиотека кодирования : x264 core 142 r2431+42 c69a006 tMod [8-bit@4:2:0 X86_64]
Настройки программы : cabac=1 / ref=9 / deblock=1:-3:-3 / analyse=0x3:0x113 / me=umh / subme=11 / psy=1 / fade_compensate=0.00 / psy_rd=1.00:0.05 / mixed_ref=1 / me_range=32 / chroma_me=1 / trellis=2 / 8x8dct=1 / cqm=0 / deadzone=21,11 / fast_pskip=0 / chroma_qp_offset=-2 / threads=12 / lookahead_threads=2 / sliced_threads=0 / nr=0 / decimate=1 / interlaced=0 / bluray_compat=0 / constrained_intra=0 / fgo=0 / bframes=8 / b_pyramid=2 / b_adapt=2 / b_bias=0 / direct=3 / weightb=1 / open_gop=0 / weightp=2 / keyint=250 / keyint_min=23 / scenecut=40 / intra_refresh=0 / rc_lookahead=40 / rc=crf / mbtree=0 / crf=17.0000 / qcomp=0.60 / qpmin=0:0:0 / qpmax=69:69:69 / qpstep=4 / vbv_maxrate=30000 / vbv_bufsize=30000 / crf_max=0.0 / nal_hrd=none / filler=0 / ip_ratio=1.40 / pb_ratio=1.30 / aq=3:1.00 / aq-sensitivity=10.00 / aq-factor=1.00:1.00:1.00 / aq2=0 / aq3=0
Язык : English
Default : Да
Forced : Нет
Коэффициенты матрицы : BT.709
Аудио #1
Идентификатор : 2
Формат : AC-3
Формат/Информация : Audio Coding 3
Расширение режима : CM (complete main)
Параметр Endianness формата : Big
Идентификатор кодека : A_AC3
Продолжительность : 1 ч. 48 м.
Вид битрейта : Постоянный
Битрейт : 192 Кбит/сек
Каналы : 2 канала
Расположение каналов : Front: L R
Частота : 48,0 КГц
Битовая глубина : 16 бит
Метод сжатия : С потерями
Размер потока : 149 Мбайт (3%)
Язык : Russian
Default : Да
Forced : Нет
Аудио #2
Идентификатор : 3
Формат : DTS
Формат/Информация : Digital Theater Systems
Режим : 16
Параметр Endianness формата : Big
Идентификатор кодека : A_DTS
Продолжительность : 1 ч. 48 м.
Вид битрейта : Постоянный
Битрейт : 1509 Кбит/сек
Каналы : 6 каналов
Расположение каналов : Front: L C R, Side: L R, LFE
Частота : 48,0 КГц
Битовая глубина : 24 бит
Метод сжатия : С потерями
Размер потока : 1,14 Гбайт (27%)
Язык : English
Default : Нет
Forced : Нет
Меню
00:00:00.000 : en:00:00:00.000
00:00:59.559 : en:00:00:59.559
00:05:50.100 : en:00:05:50.100
00:10:05.563 : en:00:10:05.563
00:14:31.537 : en:00:14:31.537
00:18:24.019 : en:00:18:24.019
00:26:03.353 : en:00:26:03.353
00:30:57.439 : en:00:30:57.439
00:37:07.100 : en:00:37:07.100
00:40:43.441 : en:00:40:43.441
00:44:31.752 : en:00:44:31.752
00:51:40.430 : en:00:51:40.430
00:55:40.378 : en:00:55:40.378
01:00:48.269 : en:01:00:48.269
01:03:37.855 : en:01:03:37.855
01:09:19.822 : en:01:09:19.822
01:13:39.165 : en:01:13:39.165
01:17:07.372 : en:01:17:07.372
01:21:52.366 : en:01:21:52.366
01:28:19.169 : en:01:28:19.169
01:32:43.433 : en:01:32:43.433
01:36:12.141 : en:01:36:12.141







   Похожие торренты   Торрент   Размер 
В этой теме нет новых непрочитанных сообщений. Зверополис / Zootopia (2016) BDRip 720p | D | Line

884 | 24

3.42 ГБ

В этой теме нет новых непрочитанных сообщений. Зверополис / Zootopia (2016) BDRip 720p | D | Line

279 | 20

3.42 ГБ

В этой теме нет новых непрочитанных сообщений. Зверополис / Zootopia (2016) BDRip 720p | D | Line

4908 | 166

3.61 ГБ

В этой теме нет новых непрочитанных сообщений. Зверополис / Zootopia (2016) WEBRip 720p | Line

2767 | 31

2.4 ГБ

В этой теме нет новых непрочитанных сообщений. Зверополис / Zootopia (2016) TC 720p от Maxaon22 | D | Line

1875 | 18

1.76 ГБ

В этой теме нет новых непрочитанных сообщений. Зверополис / Zootopia (2016) WEBRip 720p | D | Line

375 | 12

1.22 ГБ

В этой теме нет новых непрочитанных сообщений. Зверополис / Zootopia (2016) BDRip-AVC от teleport2222 | D | Line

628 | 16

2.19 ГБ




Вы не можете начинать темы
Вы не можете отвечать на сообщения
Вы не можете редактировать свои сообщения
Вы не можете удалять свои сообщения
Вы не можете добавлять вложения

Перейти:  
Для Мосгорсуда, Роскомнадзора и рекламодателей: mosgorsud-torrent[собачка]yandex.ru
 Вход
ppkBB3cker v.2 © 2008-2014 @ PPK
[ Time : 0.045s | 15 Queries | GZIP : On ]

Торрент трекер RUTOR.IN, Не можете зайти на rutor.org? Какой новый адрес рутор? Какое зеркало рутор? Не работает rutor.org и зеркала? Тогда наш торрент специально для вас. Rutor.in неофициальное зеркало rutor. В случае если у Вас заблокирован rutor или вдруг Вы не можете на него зайти, то Вы без труда сможете скачать бесплатно и без рекламы последние новинки кино, игр, сериалов и прочего у нас, на Rutor.in. Не нужно использовать прокси, чтобы зайти на рутор, достаточно воспользоваться нашим ресурсом. Все новые фильмы, игры, сериалы, книги и музыка за 2013 и 2014 годы через торрент бесплатно. Скачивайте фильмы в хорошем качестве, игры для пк, xbox, playstation без регистрации. У нас вы найдете новые Зарубежные сериалы и Русские сериалы 2013, 2014, 2015 годов. Оставайтесь с нами, качайте любимые фильмы, игры, сериалы, книги и музыку.