img image001 image001 image001 image001 image001 image001 image001 image001 image001 image001 image001 image001 image001 image001 image001

Planets Sun Sun Sun
Статистика раздачи
Автор: Nickolas3434 | Размер: 1.37 ГБ | Добавлен: 26 май 2016, 02:20
Раздают: 6374    Качают: 85
Скачать торрент
Скачать торрент
Описание торрента

СообщениеДобавлено: 26 май 2016, 02:20 


Angry Birds в кино / The Angry Birds Movie
Страна: Финляндия США
Производство: Columbia Pictures, Village Roadshow Pictures, LStar Capital, Sony Pictures Animation
Год выпуска: 2016
Жанр: мультфильм, боевик, комедия, семейный
Продолжительность: 01:27:14
Режиссеры: Клэй Кэйтис, Фергал Рейли
Автор сценария: Джон Витти
В ролях: Питер Динклэйдж, Джейсон Судейкис, Кейт МакКиннон, Кигэн-Майкл Ки, Титус Берджесс, Шон Пенн, Билл Хейдер, Майя Рудольф
Описание: Фильм расскажет о том, как началось знаменитое противостояние птичек и свинок, персонажей популярной компьютерной игры, а также раскроет некоторые секреты любимых героев...

Перевод: Профессиональный (полное дублирование)
Субтитры: нет

Качество: Telecine
Формат: АVI
Видео кодек: XviD
Аудио кодек: АС3
Видео: 720x400 (16:9), 30.000 fps, XviD ~1 496 kbps avg
Аудио: 48.0 kHz, AC3 Dolby Digital, 2/0 (L,R) ch, ~192 kbps
Дата премьеры (мир): 5 мая 2016
Дата премьеры (РФ): 12 мая 2016, «WDSSPR»
ПРИМЕЧАНИЕ: ПРИСУТСТВУЕТ РЕКЛАМА!
General
Format : AVI
Format/Info : Audio Video Interleave
Overall bit rate : 1 701 Kbps
Writing application : VirtualDubMod 1.5.10.3 | (build 2550/release)
Writing library : VirtualDubMod build 2550/release
Video
ID : 0
Format : MPEG-4 Visual
Format profile : Advanced Simple@L5
Format settings, BVOP : 2
Format settings, QPel : No
Format settings, GMC : No warppoints
Format settings, Matrix : Custom
Codec ID : XVID
Codec ID/Hint : XviD
Bit rate : 1 496 Kbps
Width : 720 pixels
Height : 400 pixels
Display aspect ratio : 16:9
Frame rate : 30.000 fps
Color space : YUV
Chroma subsampling : 4:2:0
Bit depth : 8 bits
Scan type : Progressive
Compression mode : Lossy
Bits/(Pixel*Frame) : 0.173
Stream size : 11.2 MiB (88%)
Writing library : XviD 1.2.1 (UTC 2008-12-04)
Audio
ID : 1
Format : AC-3
Format/Info : Audio Coding 3
Mode extension : CM (complete main)
Format settings, Endianness : Big
Codec ID : 2000
Bit rate mode : Constant
Bit rate : 192 Kbps
Channel(s) : 2 channels
Channel positions : Front: L R
Sampling rate : 48.0 KHz
Compression mode : Lossy
Delay relative to video : 29ms
Stream size : 1.44 MiB (11%)
Alignment : Split accross interleaves
Interleave, duration : 34 ms (1.01 video frame)
Interleave, preload duration : 500 ms




   Похожие торренты   Торрент   Размер 
В этой теме нет новых непрочитанных сообщений. Angry Birds в кино / The Angry Birds Movie (2016) BDRip 1080p от Ash61 | 3D-Video | halfOU | iTunes

0 | 0

11.64 ГБ

В этой теме нет новых непрочитанных сообщений. Angry Birds в кино / The Angry Birds Movie (2016) BDRip 1080p от Ash61 | 3D-Video | halfOU | iTunes

107 | 47

11.17 ГБ

В этой теме нет новых непрочитанных сообщений. Angry Birds в кино / The Angry Birds Movie (2016) BDRip 720p от ExKinoRay | iTunes

991 | 36

4.76 ГБ

В этой теме нет новых непрочитанных сообщений. Angry Birds в кино / The Angry Birds Movie (2016) BDRip 720p | Дополнительные материалы | Sub

56 | 10

1.9 ГБ

В этой теме нет новых непрочитанных сообщений. Angry Birds в кино / The Angry Birds Movie (2016) BDRip 1080p от NNNB | Лицензия

0 | 0

5.75 ГБ

В этой теме нет новых непрочитанных сообщений. OST - Angry Birds в кино / The Angry Birds Movie [Original Motion Picture Soundtrack] (2016) MP3

144 | 10

119.01 МБ

В этой теме нет новых непрочитанных сообщений. Angry Birds в кино / The Angry Birds Movie (2016) BDRip-AVC от ExKinoRay | iTunes Russia

15165 | 687

1.42 ГБ




Вы не можете начинать темы
Вы не можете отвечать на сообщения
Вы не можете редактировать свои сообщения
Вы не можете удалять свои сообщения
Вы не можете добавлять вложения

Перейти:  
Для Мосгорсуда, Роскомнадзора и рекламодателей: mosgorsud-torrent[собачка]yandex.ru
Настройки
ppkBB3cker v.2 © 2008-2014 @ PPK
[ Time : 0.606s | 16 Queries | GZIP : Off ]
CGP [Extreme] output time : 0.00014s | 0 Queries | GZIP : Off

Торрент трекер RUTOR.IN, Не можете зайти на rutor.org? Какой новый адрес рутор? Какое зеркало рутор? Не работает rutor.org и зеркала? Тогда наш торрент специально для вас. Rutor.in неофициальное зеркало rutor. В случае если у Вас заблокирован rutor или вдруг Вы не можете на него зайти, то Вы без труда сможете скачать бесплатно и без рекламы последние новинки кино, игр, сериалов и прочего у нас, на Rutor.in. Не нужно использовать прокси, чтобы зайти на рутор, достаточно воспользоваться нашим ресурсом. Все новые фильмы, игры, сериалы, книги и музыка за 2013 и 2014 годы через торрент бесплатно. Скачивайте фильмы в хорошем качестве, игры для пк, xbox, playstation без регистрации. У нас вы найдете новые Зарубежные сериалы и Русские сериалы 2013, 2014, 2015 годов. Оставайтесь с нами, качайте любимые фильмы, игры, сериалы, книги и музыку.