img image001 image001 image001 image001 image001 image001 image001 image001 image001 image001 image001 image001 image001 image001 image001

Planets Sun Sun Sun
Статистика раздачи
Автор: Nickolas3434 | Размер: 1.37 ГБ | Добавлен: 26 май 2016, 02:20
Раздают: 5392    Качают: 176
Скачать торрент
Скачать торрент
Описание торрента

СообщениеДобавлено: 26 май 2016, 02:20 


Смешарики. Легенда о золотом драконе
Страна: Россия
Производство: Студия Анимации «Петербург», Art Pictures Studio
Год выпуска: 2016
Жанр: мультфильм, приключения, комедия
Продолжительность: 01:20:15
Режиссер: Денис Чернов
Авторы сценария: Денис Чернов, Дмитрий Яковенко
В ролях: Михаил Черняк, Сергей Мардарь, Антон Виноградов, Владимир Постников, Светлана Письмиченко, Вадим Бочанов, Гарик Харламов, Дмитрий Нагиев
Описание: Выдающийся учёный и его команда отправляются в самое сердце диких джунглей, где их ждут опасные приключения, свирепые туземцы и расхитители гробниц, до зубов вооруженные гаджетами...

Перевод: не требуется (оригинал)
Субтитры: нет

Качество: НDRip
Формат: АVI
Видео кодек: XviD
Аудио кодек: АС3
Видео: 720x304 (2.35:1), 23.976 fps, XviD ~1 981 kbps avg, 0.200 bit/pixel
Аудио: 48.0 kHz, AC3 Dolby Digital, 3/2 (L,C,R,l,r) + LFE ch, ~448.00 kbps
Дата премьеры (РФ): 17 марта 2016, «UPI»

General
Format : AVI
Format/Info : Audio Video Interleave
Overall bit rate : 2 221 Kbps
Movie name : Smeshariki.2O16.O.HDRip.1400MB
Writing application : VirtualDubMod 1.5.10.3 | (build 2550/release)
Writing library : VirtualDubMod build 2550/release
Copyright : MoreFilms
Video
ID : 0
Format : MPEG-4 Visual
Format profile : Advanced Simple@L5
Format settings, BVOP : 2
Format settings, QPel : No
Format settings, GMC : No warppoints
Format settings, Matrix : Custom
Codec ID : XVID
Codec ID/Hint : XviD
Bit rate : 1 981 Kbps
Width : 720 pixels
Height : 304 pixels
Display aspect ratio : 2.35:1
Frame rate : 23.976 fps
Color space : YUV
Chroma subsampling : 4:2:0
Bit depth : 8 bits
Scan type : Progressive
Compression mode : Lossy
Bits/(Pixel*Frame) : 0.200
Stream size : 6.95 MiB (70%)
Writing library : XviD 1.2.1 (UTC 2008-12-04)
Audio
ID : 1
Format : AC-3
Format/Info : Audio Coding 3
Mode extension : CM (complete main)
Format settings, Endianness : Big
Codec ID : 2000
Bit rate mode : Constant
Bit rate : 448 Kbps
Channel(s) : 6 channels
Channel positions : Front: L C R, Side: L R, LFE
Sampling rate : 48.0 KHz
Compression mode : Lossy
Stream size : 2.96 MiB (30%)
Alignment : Split accross interleaves
Interleave, preload duration : 500 ms




   Похожие торренты   Торрент   Размер 
В этой теме нет новых непрочитанных сообщений. Смешарики. Легенда о золотом драконе (2016) HDRip | КПК | Лицензия

148 | 14

362.6 МБ

В этой теме нет новых непрочитанных сообщений. Смешарики. Легенда о золотом драконе (2016) BDRip-AVC от NNNB | Лицензия

640 | 23

1.46 ГБ

В этой теме нет новых непрочитанных сообщений. Смешарики. Легенда о золотом драконе (2016) BDRip от ExKinoRay | Лицензия

503 | 42

1.46 ГБ

В этой теме нет новых непрочитанных сообщений. Смешарики. Легенда о золотом драконе (2016) BDRip 1080p от NNNB | Лицензия

1028 | 75

5.76 ГБ

В этой теме нет новых непрочитанных сообщений. Смешарики. Легенда о золотом драконе (2016) BDRip 1080p от ExKinoRay | Лицензия

185 | 12

8.18 ГБ

В этой теме нет новых непрочитанных сообщений. Смешарики. Легенда о золотом драконе (2016) WEB-DL 1080p | iTunes

1553 | 32

2.74 ГБ

В этой теме нет новых непрочитанных сообщений. Смешарики. Легенда о золотом драконе (2016) WEB-DLRip | iTunes

5386 | 43

1.37 ГБ




Вы не можете начинать темы
Вы не можете отвечать на сообщения
Вы не можете редактировать свои сообщения
Вы не можете удалять свои сообщения
Вы не можете добавлять вложения

Перейти:  
Для Мосгорсуда, Роскомнадзора и рекламодателей: mosgorsud-torrent[собачка]yandex.ru
Настройки
ppkBB3cker v.2 © 2008-2014 @ PPK
[ Time : 0.575s | 17 Queries | GZIP : On ]
CGP [Extreme] output time : 0.00019s | 0 Queries | GZIP : On

Торрент трекер RUTOR.IN, Не можете зайти на rutor.org? Какой новый адрес рутор? Какое зеркало рутор? Не работает rutor.org и зеркала? Тогда наш торрент специально для вас. Rutor.in неофициальное зеркало rutor. В случае если у Вас заблокирован rutor или вдруг Вы не можете на него зайти, то Вы без труда сможете скачать бесплатно и без рекламы последние новинки кино, игр, сериалов и прочего у нас, на Rutor.in. Не нужно использовать прокси, чтобы зайти на рутор, достаточно воспользоваться нашим ресурсом. Все новые фильмы, игры, сериалы, книги и музыка за 2013 и 2014 годы через торрент бесплатно. Скачивайте фильмы в хорошем качестве, игры для пк, xbox, playstation без регистрации. У нас вы найдете новые Зарубежные сериалы и Русские сериалы 2013, 2014, 2015 годов. Оставайтесь с нами, качайте любимые фильмы, игры, сериалы, книги и музыку.