img image001 image001 image001 image001 image001 image001 image001 image001 image001 image001 image001 image001 image001 image001 image001

Planets Sun Sun Sun
Статистика раздачи
Автор: Nickolas3434 | Размер: 14.2 ГБ | Добавлен: 28 май 2016
Раздают: 76    Качают: 11
Скачать торрент
Скачать торрент
Описание торрента

СообщениеДобавлено: 28 май 2016 


Информация о фильме
Название: Смешарики
Год выхода: 2016
Жанр: Мультфильм, приключения, комедия, полнометражный
Режиссер: Денис Чернов
В ролях: Дмитрий Нагиев, Гарик Харламов, Михаил Черняк, Сергей Мардарь, Антон Виноградов, Владимир Постников, Светлана Письмиченко, Вадим Бочанов
О фильме:
Выдающийся учёный и его команда отправляются в самое сердце диких джунглей, где их ждут опасные приключения, свирепые туземцы и расхитители гробниц, до зубов вооруженные гаджетами.

Страна: Россия
Студия: Продюсерский центр «Рики», Студия компьютерной анимации «Петербург»
Продолжительность: 01:20:17
Файл
Кодек: MPEG-4
Качество: BDRemux 1080p
Видео: 1920x1080, 23.1 Mbit/s, 23.976 fps
Звук: 48 kHz, DTS-HD MA, 5.1, 2234 Kbps |
Релиз от: Автор релиза:
General
Unique ID : 219046700365917937054336291757866374709 (0xA4CADC25619F82B0857333BF143C5635)
Complete name : F:VideoСмешарики.2016.BDREMUX.1080p.ExKinoRay.mkv
Format : Matroska
Format version : Version 4 / Version 2
File size : 14.2 GiB
Duration : 1h 20mn
Overall bit rate mode : Variable
Overall bit rate : 25.3 Mbps
Movie name : Смешарики.2016.BDREMUX.1080p.ExKinoRay
Encoded date : UTC 2016-05-26 02:43:23
Writing application : mkvmerge v8.3.0 ('Over the Horizon') 64bit
Writing library : libebml v1.3.1 + libmatroska v1.4.2
Video
ID : 1
Format : AVC
Format/Info : Advanced Video Codec
Format profile : High@L4.1
Format settings, CABAC : Yes
Format settings, ReFrames : 4 frames
Codec ID : V_MPEG4/ISO/AVC
Duration : 1h 20mn
Bit rate mode : Variable
Bit rate : 23.1 Mbps
Maximum bit rate : 33.0 Mbps
Width : 1 920 pixels
Height : 1 080 pixels
Display aspect ratio : 16:9
Frame rate mode : Constant
Frame rate : 23.976 (24000/1001) fps
Standard : NTSC
Color space : YUV
Chroma subsampling : 4:2:0
Bit depth : 8 bits
Scan type : Progressive
Bits/(Pixel*Frame) : 0.464
Stream size : 12.9 GiB (91%)
Language : Russian
Default : Yes
Forced : No
Color range : Limited
Color primaries : BT.709
Transfer characteristics : BT.709
Matrix coefficients : BT.709
Audio
ID : 2
Format : DTS
Format/Info : Digital Theater Systems
Format profile : MA / Core
Mode : 16
Format settings, Endianness : Big
Codec ID : A_DTS
Duration : 1h 20mn
Bit rate mode : Variable / Constant
Bit rate : 2 234 Kbps / 1 509 Kbps
Channel(s) : 6 channels
Channel positions : Front: L C R, Side: L R, LFE
Sampling rate : 48.0 KHz
Frame rate : 93.750 fps (512 spf)
Bit depth : 16 bits
Compression mode : Lossless / Lossy
Stream size : 1.25 GiB (9%)
Language : Russian
Default : Yes
Forced : No



   Похожие торренты   Торрент   Размер 
В этой теме нет новых непрочитанных сообщений. Смешарики. Легенда о золотом драконе (2016) BDRip 1080p от ExKinoRay | Лицензия

189 | 11

8.18 ГБ

В этой теме нет новых непрочитанных сообщений. Смешарики. Легенда о золотом драконе (2016) BDRip от ExKinoRay | Лицензия

443 | 40

1.46 ГБ

В этой теме нет новых непрочитанных сообщений. Варкрафт / Warcraft (2016) BDRemux 1080p от ExKinoRay | D, A | Лицензия

143 | 54

27.96 ГБ

В этой теме нет новых непрочитанных сообщений. Отмель / The Shallows (2016) BDRemux 1080p от ExKinoRay | Лицензия

43 | 21

17.71 ГБ

В этой теме нет новых непрочитанных сообщений. Зверополис / Zootopia (2016) BDRemux 1080p от ExKinoRay | Лицензия

26 | 10

22.14 ГБ

В этой теме нет новых непрочитанных сообщений. 5-я волна / The 5th Wave (2016) BDRemux 1080p от ExKinoRay | Лицензия

139 | 14

23.8 ГБ

В этой теме нет новых непрочитанных сообщений. Папашина армия / Dad's Army (2016) BDRemux 1080p от ExKinoRay | Лицензия

29 | 4

21.42 ГБ




Вы не можете начинать темы
Вы не можете отвечать на сообщения
Вы не можете редактировать свои сообщения
Вы не можете удалять свои сообщения
Вы не можете добавлять вложения

Перейти:  
Для Мосгорсуда, Роскомнадзора и рекламодателей: mosgorsud-torrent[собачка]yandex.ru
 Вход
ppkBB3cker v.2 © 2008-2014 @ PPK
[ Time : 0.022s | 14 Queries | GZIP : Off ]
CGP output time : 0.058s | 5 Queries | GZIP : Off

Торрент трекер RUTOR.IN, Не можете зайти на rutor.org? Какой новый адрес рутор? Какое зеркало рутор? Не работает rutor.org и зеркала? Тогда наш торрент специально для вас. Rutor.in неофициальное зеркало rutor. В случае если у Вас заблокирован rutor или вдруг Вы не можете на него зайти, то Вы без труда сможете скачать бесплатно и без рекламы последние новинки кино, игр, сериалов и прочего у нас, на Rutor.in. Не нужно использовать прокси, чтобы зайти на рутор, достаточно воспользоваться нашим ресурсом. Все новые фильмы, игры, сериалы, книги и музыка за 2013 и 2014 годы через торрент бесплатно. Скачивайте фильмы в хорошем качестве, игры для пк, xbox, playstation без регистрации. У нас вы найдете новые Зарубежные сериалы и Русские сериалы 2013, 2014, 2015 годов. Оставайтесь с нами, качайте любимые фильмы, игры, сериалы, книги и музыку.