img image001 image001 image001 image001 image001 image001 image001 image001 image001 image001 image001 image001 image001 image001 image001

Planets Sun Sun Sun
Статистика раздачи
Автор: Nickolas3434 | Размер: 8.18 ГБ | Добавлен: 27 май 2016
Раздают: 132    Качают: 4
Скачать торрент
Скачать торрент
Описание торрента

СообщениеДобавлено: 27 май 2016 


Информация о фильме
Название: Смешарики. Легенда о золотом драконе
Год выхода: 2016
Жанр: Мультфильм, приключения, комедия, полнометражный
Режиссер: Денис Чернов
В ролях: Дмитрий Нагиев, Гарик Харламов, Михаил Черняк, Сергей Мардарь, Антон Виноградов, Владимир Постников, Светлана Письмиченко, Вадим Бочанов
О фильме:
Выдающийся учёный и его команда отправляются в самое сердце диких джунглей, где их ждут опасные приключения, свирепые туземцы и расхитители гробниц, до зубов вооруженные гаджетами.

Страна: Россия
Студия: Продюсерский центр «Рики», Студия компьютерной анимации «Петербург»
Продолжительность: 01:20:17
Файл
Кодек: MPEG-4
Качество: BDRip 1080p
Видео: 1920x804, 13.1 Mbit/s, 23.976 fps
Звук: 48 kHz, DTS, 5.1, 1536 Kbps | Лицензия |
Релиз от: Автор релиза:
General
Unique ID : 171781602963705970596679591026423746798 (0x813BEEED073B4C8C80F66400F297D0EE)
Complete name : F:VideoСмешарики.2016.BDRip.1080p.ExKinoRay.mkv
Format : Matroska
Format version : Version 4 / Version 2
File size : 8.18 GiB
Duration : 1h 20mn
Overall bit rate : 14.6 Mbps
Movie name : Смешарики.2016.BDRip.1080p.ExKinoRay
Encoded date : UTC 2016-05-27 07:15:45
Writing application : mkvmerge v8.3.0 ('Over the Horizon') 64bit
Writing library : libebml v1.3.1 + libmatroska v1.4.2
Video
ID : 1
Format : AVC
Format/Info : Advanced Video Codec
Format profile : High@L4.1
Format settings, CABAC : Yes
Format settings, ReFrames : 5 frames
Codec ID : V_MPEG4/ISO/AVC
Duration : 1h 20mn
Bit rate : 13.1 Mbps
Width : 1 920 pixels
Height : 804 pixels
Display aspect ratio : 2.40:1
Frame rate mode : Constant
Frame rate : 23.976 (24000/1001) fps
Color space : YUV
Chroma subsampling : 4:2:0
Bit depth : 8 bits
Scan type : Progressive
Bits/(Pixel*Frame) : 0.353
Stream size : 7.32 GiB (89%)
Writing library : x264 core 146 r2538 121396c
Encoding settings : cabac=1 / ref=5 / deblock=1:-3:-3 / analyse=0x3:0x133 / me=umh / subme=11 / psy=1 / psy_rd=1.10:0.00 / mixed_ref=1 / me_range=48 / chroma_me=1 / trellis=2 / 8x8dct=1 / cqm=0 / deadzone=21,11 / fast_pskip=0 / chroma_qp_offset=-2 / threads=6 / lookahead_threads=2 / sliced_threads=0 / nr=0 / decimate=0 / interlaced=0 / bluray_compat=0 / constrained_intra=0 / bframes=8 / b_pyramid=2 / b_adapt=2 / b_bias=0 / direct=3 / weightb=1 / open_gop=0 / weightp=2 / keyint=240 / keyint_min=23 / scenecut=40 / intra_refresh=0 / rc_lookahead=150 / rc=2pass / mbtree=1 / bitrate=13063 / ratetol=1.0 / qcomp=0.70 / qpmin=0 / qpmax=69 / qpstep=4 / cplxblur=20.0 / qblur=0.5 / vbv_maxrate=50000 / vbv_bufsize=62500 / nal_hrd=none / filler=0 / ip_ratio=1.40 / aq=3:0.80
Language : Russian
Default : Yes
Forced : No
Audio
ID : 2
Format : DTS
Format/Info : Digital Theater Systems
Mode : 16
Format settings, Endianness : Big
Codec ID : A_DTS
Duration : 1h 20mn
Bit rate mode : Constant
Bit rate : 1 536 Kbps
Channel(s) : 6 channels
Channel positions : Front: L C R, Side: L R, LFE
Sampling rate : 48.0 KHz
Frame rate : 93.750 fps (512 spf)
Bit depth : 16 bits
Compression mode : Lossy
Stream size : 882 MiB (11%)
Language : Russian
Default : Yes
Forced : No



   Похожие торренты   Торрент   Размер 
В этой теме нет новых непрочитанных сообщений. Смешарики. Легенда о золотом драконе (2016) BDRip от ExKinoRay | Лицензия

290 | 27

1.46 ГБ

В этой теме нет новых непрочитанных сообщений. Смешарики. Легенда о золотом драконе (2016) BDRip 1080p от NNNB | Лицензия

557 | 16

5.76 ГБ

В этой теме нет новых непрочитанных сообщений. Смешарики. Легенда о золотом драконе (2016) BDRip-AVC от NNNB | Лицензия

431 | 10

1.46 ГБ

В этой теме нет новых непрочитанных сообщений. Смешарики. Легенда о золотом драконе (2016) WEB-DLRip-AVC от ExKinoRay | iTunes

197 | 5

1.25 ГБ

В этой теме нет новых непрочитанных сообщений. Смешарики. Легенда о золотом драконе (2016) BDRip 1080p от Ash61 | 3D-Video | halfOU

72 | 7

7.51 ГБ

В этой теме нет новых непрочитанных сообщений. Смешарики. Легенда о золотом драконе (2016) НDRip | Лицензия

2942 | 54

1.37 ГБ

В этой теме нет новых непрочитанных сообщений. Смешарики. Легенда о золотом драконе (2016) HDRip | КПК | Лицензия

147 | 14

362.6 МБ




Вы не можете начинать темы
Вы не можете отвечать на сообщения
Вы не можете редактировать свои сообщения
Вы не можете удалять свои сообщения
Вы не можете добавлять вложения

Перейти:  
Для Мосгорсуда, Роскомнадзора и рекламодателей: mosgorsud-torrent[собачка]yandex.ru
 Вход
ppkBB3cker v.2 © 2008-2014 @ PPK
[ Time : 0.047s | 17 Queries | GZIP : Off ]

cron