img image001 image001 image001 image001 image001 image001 image001 image001 image001 image001 image001 image001 image001 image001 image001

Planets Sun Sun Sun
Статистика раздачи
Автор: Nickolas3434 | Размер: 745.01 МБ | Добавлен: 29 май 2016
Раздают: 5    Качают: 0
Скачать торрент
Скачать торрент
Описание торрента

СообщениеДобавлено: 29 май 2016 


Информация о фильме
Название: Аномализа
Оригинальное название: Anomalisa
Год выхода: 2015
Жанр: Мультфильм, драма, мелодрама, комедия
Режиссер: Дьюк Джонсон, Чарли Кауфман
В ролях: Дэвид Тьюлис, Дженнифер Джейсон Ли, Том Нунен
О фильме:
Майкл Стоун, автор книг по обслуживанию клиентов, страдает от неспособности контактировать с людьми. Однажды, в ходе очередной рабочей поездки, он встречает незнакомку, которая меняет его мировосприятие.

Страна: США
Студия: Paramount Animation, Starburns Industries
Продолжительность: 01:30:50
Перевод: Дублированный | iTunes Russia
Примечание: 18+
Файл
Формат: AVI
Качество: WEB-DLRip
Видео: XviD, 688x288, 23.976 fps, 1008 kbps
Звук: MP3, 2 ch, ~128 kbps
Релиз:

General
Complete name : Anomalisa.2015.WEB-DLRip.745MB.MegaPeer.avi
Format : AVI
Format/Info : Audio Video Interleave
File size : 744 MiB
Duration : 1h 30mn
Overall bit rate : 1 145 Kbps
Writing application : VirtualDubMod 1.5.10.3 | www.virtualdub-fr.org || (build 2550/release)
Writing library : VirtualDubMod build 2550/release
Video
ID : 0
Format : MPEG-4 Visual
Format profile : Advanced Simple@L5
Format settings, BVOP : 1
Format settings, QPel : No
Format settings, GMC : No warppoints
Format settings, Matrix : Custom
Codec ID : XVID
Codec ID/Hint : XviD
Duration : 1h 30mn
Bit rate : 1 008 Kbps
Width : 688 pixels
Height : 288 pixels
Display aspect ratio : 2.40:1
Frame rate : 23.976 (23976/1000) fps
Color space : YUV
Chroma subsampling : 4:2:0
Bit depth : 8 bits
Scan type : Progressive
Compression mode : Lossy
Bits/(Pixel*Frame) : 0.212
Stream size : 655 MiB (88%)
Writing library : XviD 73
Audio
ID : 1
Format : MPEG Audio
Format version : Version 1
Format profile : Layer 3
Codec ID : 55
Codec ID/Hint : MP3
Duration : 1h 30mn
Bit rate mode : Constant
Bit rate : 128 Kbps
Channel(s) : 2 channels
Sampling rate : 48.0 KHz
Compression mode : Lossy
Stream size : 83.0 MiB (11%)
Alignment : Aligned on interleaves
Interleave, duration : 42 ms (1.00 video frame)
Interleave, preload duratio : 504 ms
Writing library : LAME3.99r
Encoding settings : -m s -V 4 -q 2 -lowpass 17 -b 128



   Похожие торренты   Торрент   Размер 
В этой теме нет новых непрочитанных сообщений. Аномализа / Anomalisa (2015) WEB-DLRip от MegaPeer | iTunes

9 | 0

743.84 МБ

В этой теме нет новых непрочитанных сообщений. Аномализа / Anomalisa (2015) WEB-DLRip от MegaPeer | iTunes

83 | 1

1.46 ГБ

В этой теме нет новых непрочитанных сообщений. Аномализа / Anomalisa (2015) HDRip от MegaPeer | Лицензия

20 | 1

745.01 МБ

В этой теме нет новых непрочитанных сообщений. Аномализа / Anomalisa (2015) HDRip от MegaPeer | Лицензия

444 | 25

1.45 ГБ

В этой теме нет новых непрочитанных сообщений. Аномализа / Anomalisa (2016) WEB-DLRip 720p | iTunes

221 | 34

3.07 ГБ

В этой теме нет новых непрочитанных сообщений. Аномализа / Anomalisa (2015) BDRip-AVC | iTunes

14 | 1

2.17 ГБ

В этой теме нет новых непрочитанных сообщений. Аномализа / Anomalisa (2015) BDRip 1080p | iTunes

13 | 0

4.61 ГБ




Вы не можете начинать темы
Вы не можете отвечать на сообщения
Вы не можете редактировать свои сообщения
Вы не можете удалять свои сообщения
Вы не можете добавлять вложения

Перейти:  
Для Мосгорсуда, Роскомнадзора и рекламодателей: mosgorsud-torrent[собачка]yandex.ru
 Вход
ppkBB3cker v.2 © 2008-2014 @ PPK
[ Time : 0.037s | 15 Queries | GZIP : Off ]

Торрент трекер RUTOR.IN, Не можете зайти на rutor.org? Какой новый адрес рутор? Какое зеркало рутор? Не работает rutor.org и зеркала? Тогда наш торрент специально для вас. Rutor.in неофициальное зеркало rutor. В случае если у Вас заблокирован rutor или вдруг Вы не можете на него зайти, то Вы без труда сможете скачать бесплатно и без рекламы последние новинки кино, игр, сериалов и прочего у нас, на Rutor.in. Не нужно использовать прокси, чтобы зайти на рутор, достаточно воспользоваться нашим ресурсом. Все новые фильмы, игры, сериалы, книги и музыка за 2013 и 2014 годы через торрент бесплатно. Скачивайте фильмы в хорошем качестве, игры для пк, xbox, playstation без регистрации. У нас вы найдете новые Зарубежные сериалы и Русские сериалы 2013, 2014, 2015 годов. Оставайтесь с нами, качайте любимые фильмы, игры, сериалы, книги и музыку.
cron