img image001 image001 image001 image001 image001 image001 image001 image001 image001 image001 image001 image001 image001 image001 image001

Planets Sun Sun Sun
Статистика раздачи
Автор: Nickolas3434 | Размер: 7.51 ГБ | Добавлен: 29 май 2016
Раздают: 72    Качают: 7
Скачать торрент
Скачать торрент
Описание торрента

СообщениеДобавлено: 29 май 2016 




Смешарики. Легенда о золотом драконе



Год выпуска: 2016
Страна: Россия (Universal Pictures, Фонд Кино, Ruku, Art Pictures Studio, Petersburg Animation Studio)
Жанр: Мультфильм, Приключения, Комедия
Продолжительность: 01:20:15
Перевод: Не требуется
Режиссер: Денис Чернов


Роли озвучивали:
Михаил Черняк (Копатыч, Лосяш, Пин), Сергей Мардарь (Кар-Карыч, Совунья), Антон Виноградов (Крош), Владимир Постников (Ёжик), Светлана Письмиченко (Нюша), Вадим Бочанов (Бараш), (вождь племени Хамелеонов), Дмитрий Нагиев (Дизель), Елена Шульман (Лара), Владимир Маслаков (Шустряк)


Описание:
Выдающийся учёный и его команда отправляются в самое сердце диких джунглей, где их ждут опасные приключения, свирепые туземцы и расхитители гробниц, до зубов вооруженные гаджетами.


Премьера: 17 марта 2016
Релиз на Blu-Ray (DVD) (Россия): 16 мая 2016
Бюджет: $15 000 000
Кассовые сборы: $3 966 043



За исходный BD 3D спасибо и crazy_gringo!



Качество: BDRip (by Ash61)
Контейнер: MKV
Формат 3D: Half OverUnder / Вертикальная анаморфная стереопара
Порядок ракурсов: левый ракурс первый


Видео: AVC / 1920х1080p / 23,976 fps / 12.5 Mbps
Аудио: Русский / AC3 / 48 KHz / 5.1 ch / 640 Kbps (Оригинал - BD 3D Rus)
Субтитры: Отсутствуют
General
Unique ID : 202874640794314223767753748788015149867 (0x98A03C0C88C44BEFA3DBD2E9F382332B)
Complete name : E:Smeshariki.LegendaOZolotomDrakone(2016)3D-halfOU(Ash61).mkv
Format : Matroska
Format version : Version 2
File size : 7.51 GiB
Duration : 1h 20mn
Overall bit rate : 13.4 Mbps
Movie name : Смешарики. Легенда о золотом драконе (2016) в 3Д
Encoded date : UTC 2016-05-27 15:26:30
Writing application : mkvmerge v5.8.0 ('No Sleep / Pillow') built on Sep 2 2012 15:37:04
Writing library : libebml v1.2.3 + libmatroska v1.3.0
Video
ID : 1
Format : AVC
Format/Info : Advanced Video Codec
Format profile : High@L4.1
Format settings, CABAC : Yes
Format settings, ReFrames : 4 frames
Codec ID : V_MPEG4/ISO/AVC
Duration : 1h 20mn
Bit rate : 12.5 Mbps
Width : 1 920 pixels
Height : 1 080 pixels
Display aspect ratio : 16:9
Frame rate mode : Constant
Frame rate : 23.976 fps
Color space : YUV
Chroma subsampling : 4:2:0
Bit depth : 8 bits
Scan type : Progressive
Bits/(Pixel*Frame) : 0.251
Stream size : 7.01 GiB (93%)
Title : BDRip by Ash61
Writing library : x264 core 146 r2538 121396c
Encoding settings : cabac=1 / ref=4 / deblock=1:-3:-3 / analyse=0x3:0x113 / me=umh / subme=10 / psy=1 / psy_rd=1.00:0.00 / mixed_ref=1 / me_range=32 / chroma_me=1 / trellis=2 / 8x8dct=1 / cqm=0 / deadzone=21,11 / fast_pskip=1 / chroma_qp_offset=-2 / threads=12 / lookahead_threads=3 / sliced_threads=0 / nr=0 / decimate=1 / interlaced=0 / bluray_compat=0 / constrained_intra=0 / bframes=12 / b_pyramid=2 / b_adapt=2 / b_bias=0 / direct=3 / weightb=1 / open_gop=0 / weightp=2 / keyint=250 / keyint_min=23 / scenecut=40 / intra_refresh=0 / rc_lookahead=60 / rc=crf / mbtree=1 / crf=15.0 / qcomp=0.70 / qpmin=0 / qpmax=69 / qpstep=4 / vbv_maxrate=40000 / vbv_bufsize=30000 / crf_max=0.0 / nal_hrd=none / filler=0 / frame-packing=4 / ip_ratio=1.40 / aq=1:0.70
Language : Russian
Default : Yes
Forced : No
Audio
ID : 2
Format : AC-3
Format/Info : Audio Coding 3
Mode extension : CM (complete main)
Format settings, Endianness : Big
Codec ID : A_AC3
Duration : 1h 20mn
Bit rate mode : Constant
Bit rate : 640 Kbps
Channel(s) : 6 channels
Channel positions : Front: L C R, Side: L R, LFE
Sampling rate : 48.0 KHz
Bit depth : 16 bits
Compression mode : Lossy
Stream size : 367 MiB (5%)
Title : Оригинал - BD 3D Rus
Language : Russian
Default : Yes
Forced : No
Menu
00:00:00.000 : :1
00:11:51.961 : :2
00:20:18.634 : :3
00:30:19.568 : :4
00:39:01.839 : :5
00:50:24.021 : :6
00:59:05.834 : :7
01:09:52.480 : :8





















   Похожие торренты   Торрент   Размер 
В этой теме нет новых непрочитанных сообщений. Смешарики. Легенда о золотом драконе (2016) BDRip 1080p от NNNB | Лицензия

559 | 16

5.76 ГБ

В этой теме нет новых непрочитанных сообщений. Смешарики. Легенда о золотом драконе (2016) BDRip 1080p от ExKinoRay | Лицензия

138 | 4

8.18 ГБ

В этой теме нет новых непрочитанных сообщений. Смешарики. Легенда о золотом драконе (2016) WEB-DL 1080p | iTunes

1314 | 32

2.74 ГБ

В этой теме нет новых непрочитанных сообщений. Смешарики. Легенда о золотом драконе (2016) BDRip от ExKinoRay | Лицензия

290 | 27

1.46 ГБ

В этой теме нет новых непрочитанных сообщений. Смешарики. Легенда о золотом драконе (2016) BDRip-AVC от NNNB | Лицензия

431 | 10

1.46 ГБ

В этой теме нет новых непрочитанных сообщений. Смешарики. Легенда о золотом драконе (2016) BDRip 720р от SuperMin

1546 | 51

2.55 ГБ

В этой теме нет новых непрочитанных сообщений. Смешарики. Легенда о золотом драконе (2016) НDRip | Лицензия

2942 | 54

1.37 ГБ




Вы не можете начинать темы
Вы не можете отвечать на сообщения
Вы не можете редактировать свои сообщения
Вы не можете удалять свои сообщения
Вы не можете добавлять вложения

Перейти:  
Для Мосгорсуда, Роскомнадзора и рекламодателей: mosgorsud-torrent[собачка]yandex.ru
 Вход
ppkBB3cker v.2 © 2008-2014 @ PPK
[ Time : 0.054s | 15 Queries | GZIP : Off ]

cron