img image001 image001 image001 image001 image001 image001 image001 image001 image001 image001 image001 image001 image001 image001 image001

Planets Sun Sun Sun
Статистика раздачи
Автор: Nickolas3434 | Размер: 2.55 ГБ | Добавлен: 29 май 2016
Раздают: 2081    Качают: 167
Скачать торрент
Скачать торрент
Описание торрента

СообщениеДобавлено: 29 май 2016 


Информация о фильме
Название: Смешарики. Легенда о золотом драконе
Год выхода: 2016
Жанр: Мультфильм, приключения, комедия, полнометражный
Режиссер: Денис Чернов
В ролях: Дмитрий Нагиев, Гарик Харламов, Михаил Черняк, Сергей Мардарь, Антон Виноградов, Владимир Постников, Светлана Письмиченко, Вадим Бочанов
О фильме:
Выдающийся учёный и его команда отправляются в самое сердце диких джунглей, где их ждут опасные приключения, свирепые туземцы и расхитители гробниц, до зубов вооруженные гаджетами.

Страна: Россия
Студия: Продюсерский центр «Рики», Студия компьютерной анимации «Петербург»
Продолжительность: 01:20:17
Перевод: Не требуется
Файл
Кодек: H.264
Качество: BDRip 720р от SuperMin
Видео: 1280x536 (2.40:1), 3823 kbps, 23.976 fps
Звук: Русский (AC-3, 6ch, 640 kbps)
x264 [info]: frame I:1013 Avg QP:17.53 size:125165
x264 [info]: frame P:31013 Avg QP:19.00 size: 38893
x264 [info]: frame B:83435 Avg QP:22.01 size: 12250
x264 [info]: consecutive B-frames: 5.2% 4.5% 13.1% 32.6% 16.7% 23.0% 2.5% 1.7% 0.7%
encoded 115461 frames, 8.49 fps, 3912.23 kb/s
General
Unique ID : 191353039881967532094229606533306128222 (0x8FF541442119D672AD5BCAB65A0A175E)
Complete name : D:МУЛЬТЫСмешарики. Легенда о золотом драконе.2016.x264.BDRip.720p.mkv
Format : Matroska
Format version : Version 2
File size : 2.55 GiB
Duration : 1h 20mn
Overall bit rate : 4 554 Kbps
Encoded date : UTC 2016-05-28 10:04:56
Writing application : mkvmerge v7.8.0 ('River Man') 32bit built on Apr 3 2015 12:11:22
Writing library : libebml v1.3.1 + libmatroska v1.4.2
Video
ID : 1
Format : AVC
Format/Info : Advanced Video Codec
Format profile : High@L4.1
Format settings, CABAC : Yes
Format settings, ReFrames : 10 frames
Codec ID : V_MPEG4/ISO/AVC
Duration : 1h 20mn
Bit rate : 3 823 Kbps
Width : 1 280 pixels
Height : 536 pixels
Display aspect ratio : 2.40:1
Frame rate mode : Constant
Frame rate : 23.976 (24000/1001) fps
Color space : YUV
Chroma subsampling : 4:2:0
Bit depth : 8 bits
Scan type : Progressive
Bits/(Pixel*Frame) : 0.232
Stream size : 2.14 GiB (84%)
Writing library : x264 core 146 r2538 121396c
Encoding settings : cabac=1 / ref=10 / deblock=1:-1:-1 / analyse=0x3:0x113 / me=umh / subme=10 / psy=1 / psy_rd=1.00:0.00 / mixed_ref=1 / me_range=32 / chroma_me=1 / trellis=2 / 8x8dct=1 / cqm=0 / deadzone=21,11 / fast_pskip=0 / chroma_qp_offset=-2 / threads=12 / lookahead_threads=2 / sliced_threads=0 / nr=0 / decimate=1 / interlaced=0 / bluray_compat=0 / constrained_intra=0 / bframes=8 / b_pyramid=2 / b_adapt=2 / b_bias=0 / direct=1 / weightb=1 / open_gop=0 / weightp=2 / keyint=240 / keyint_min=23 / scenecut=40 / intra_refresh=0 / rc_lookahead=40 / rc=crf / mbtree=0 / crf=18.0 / qcomp=0.60 / qpmin=0 / qpmax=69 / qpstep=4 / vbv_maxrate=14000 / vbv_bufsize=14000 / crf_max=0.0 / nal_hrd=none / filler=0 / ip_ratio=1.40 / pb_ratio=1.30 / aq=1:1.00
Default : Yes
Forced : No
Audio
ID : 2
Format : AC-3
Format/Info : Audio Coding 3
Mode extension : CM (complete main)
Format settings, Endianness : Big
Codec ID : A_AC3
Duration : 1h 20mn
Bit rate mode : Constant
Bit rate : 640 Kbps
Channel(s) : 6 channels
Channel positions : Front: L C R, Side: L R, LFE
Sampling rate : 48.0 KHz
Frame rate : 31.250 fps (1536 spf)
Compression mode : Lossy
Stream size : 367 MiB (14%)
Default : Yes
Forced : No



   Похожие торренты   Торрент   Размер 
В этой теме нет новых непрочитанных сообщений. Смешарики. Легенда о золотом драконе (2016) BDRip-AVC от NNNB | Лицензия

598 | 23

1.46 ГБ

В этой теме нет новых непрочитанных сообщений. Смешарики. Легенда о золотом драконе (2016) BDRip от ExKinoRay | Лицензия

443 | 40

1.46 ГБ

В этой теме нет новых непрочитанных сообщений. Смешарики. Легенда о золотом драконе (2016) BDRip 1080p от ExKinoRay | Лицензия

189 | 11

8.18 ГБ

В этой теме нет новых непрочитанных сообщений. Смешарики. Легенда о золотом драконе (2016) BDRip 1080p от NNNB | Лицензия

1028 | 75

5.76 ГБ

В этой теме нет новых непрочитанных сообщений. Смешарики. Легенда о золотом драконе (2016) BDRip 1080p от Ash61 | 3D-Video | halfOU

125 | 9

7.51 ГБ

В этой теме нет новых непрочитанных сообщений. Смешарики. Легенда о золотом драконе (2016) НDRip | Лицензия

5068 | 90

1.37 ГБ

В этой теме нет новых непрочитанных сообщений. Смешарики. Легенда о золотом драконе (2016) WEB-DL 1080p | iTunes

1645 | 34

2.74 ГБ




Вы не можете начинать темы
Вы не можете отвечать на сообщения
Вы не можете редактировать свои сообщения
Вы не можете удалять свои сообщения
Вы не можете добавлять вложения

Перейти:  
Для Мосгорсуда, Роскомнадзора и рекламодателей: mosgorsud-torrent[собачка]yandex.ru
 Вход
ppkBB3cker v.2 © 2008-2014 @ PPK
[ Time : 0.019s | 14 Queries | GZIP : Off ]
CGP output time : 0.027s | 7 Queries | GZIP : Off

Торрент трекер RUTOR.IN, Не можете зайти на rutor.org? Какой новый адрес рутор? Какое зеркало рутор? Не работает rutor.org и зеркала? Тогда наш торрент специально для вас. Rutor.in неофициальное зеркало rutor. В случае если у Вас заблокирован rutor или вдруг Вы не можете на него зайти, то Вы без труда сможете скачать бесплатно и без рекламы последние новинки кино, игр, сериалов и прочего у нас, на Rutor.in. Не нужно использовать прокси, чтобы зайти на рутор, достаточно воспользоваться нашим ресурсом. Все новые фильмы, игры, сериалы, книги и музыка за 2013 и 2014 годы через торрент бесплатно. Скачивайте фильмы в хорошем качестве, игры для пк, xbox, playstation без регистрации. У нас вы найдете новые Зарубежные сериалы и Русские сериалы 2013, 2014, 2015 годов. Оставайтесь с нами, качайте любимые фильмы, игры, сериалы, книги и музыку.