img image001 image001 image001 image001 image001 image001 image001 image001 image001 image001 image001 image001 image001 image001 image001

Planets Sun Sun Sun
Статистика раздачи
Автор: Nickolas3434 | Размер: 4.78 ГБ | Добавлен: 29 май 2016
Раздают: 33    Качают: 4
Скачать торрент
Скачать торрент
Описание торрента

СообщениеДобавлено: 29 май 2016 


Информация о фильме
Название: Аномализа
Оригинальное название: Anomalisa
Год выпуска: 2015
Жанр: Мультфильм, полнометражный, драма, комедия
Выпущено: США, Paramount Animation, Starburns Industries
Режиссер: Дьюк Джонсон, Чарли Кауфман
В ролях: Дэвид Тьюлис, Дженнифер Джейсон Ли, Том Нунен
О фильме: Майкл Стоун, автор книг по обслуживанию клиентов, страдает от неспособности контактировать с людьми. Однажды, в ходе очередной рабочей поездки, он встречает незнакомца, который меняет его мировосприятие.

Файл
Качество: BDRip (1080p)
Видео: MPEG-4 AVC, 5503 Кбит/с, 1920x800, 23.976 кадр/c
Аудио: Русский (AC3, 6 ch, 384 Кбит/с), английский (DTS, 6 ch, 1510 Кбит/с)
Размер: 4.78 ГБ
Продолжительность: 01:30:36
Перевод: Дублированный
Субтитры: Русские, английские
Озвучивание - Дублированное (iTunes Russia)
Сохранены оригинальные чаптеры как на Blu-Ray.
x264 [info]: frame I:793 Avg QP:10.88 size:180551
x264 [info]: frame P:31639 Avg QP:13.43 size: 67379
x264 [info]: frame B:97912 Avg QP:14.23 size: 15980
x264 [info]: consecutive B-frames: 1.0% 2.4% 8.8% 64.9% 6.0% 5.3% 1.5% 8.2% 0.4% 1.4%
x264 [info]: mb I I16..4: 24.8% 60.0% 15.2%
x264 [info]: mb P I16..4: 1.2% 10.0% 0.6% P16..4: 26.9% 32.6% 13.2% 3.5% 0.3% skip:11.8%
x264 [info]: mb B I16..4: 0.1% 0.6% 0.0% B16..8: 32.4% 17.8% 2.8% direct: 3.7% skip:42.5% L0:51.3% L1:41.3% BI: 7.4%
x264 [info]: 8x8 transform intra:80.5% inter:34.1%
x264 [info]: coded y,uvDC,uvAC intra: 94.1% 86.5% 76.4% inter: 19.1% 21.1% 12.1%
x264 [info]: i16 v,h,dc,p: 15% 5% 26% 54%
x264 [info]: i8 v,h,dc,ddl,ddr,vr,hd,vl,hu: 12% 10% 22% 8% 9% 9% 8% 10% 11%
x264 [info]: i4 v,h,dc,ddl,ddr,vr,hd,vl,hu: 12% 8% 8% 9% 15% 14% 12% 11% 11%
x264 [info]: i8c dc,h,v,p: 49% 21% 18% 12%
x264 [info]: Weighted P-Frames: Y:5.2% UV:2.6%
x264 [info]: ref P L0: 51.0% 5.7% 22.1% 10.4% 10.0% 0.8% 0.0%
x264 [info]: ref B L0: 76.0% 16.2% 5.5% 2.3%
x264 [info]: ref B L1: 93.8% 6.2%
x264 [info]: kb/s:5550.19

Общее
Уникальный идентификатор : 251389873954231009164039797091940390289 (0xBD1FEDB87EB1393FBCE5F665AEE35591)
Полное имя : D:ЗагрузкиAnomalisa.2015.x264.BDRip.(1080p).ExKinoRay.mkv
Формат : Matroska
Версия формата : Version 2
Размер файла : 4,78 Гбайт
Продолжительность : 1 ч. 30 м.
Общий поток : 7546 Кбит/сек
Название фильма : Амонализа.2015.Rip by: ollan
Дата кодирования : UTC 2016-05-28 20:10:16
Программа кодирования : mkvmerge v5.6.0 ('Kenya Kane') built on May 27 2012 16:44:04
Библиотека кодирования : libebml v1.2.3 + libmatroska v1.3.0
Attachements : Cover - Anamalisa.png
Видео
Идентификатор : 1
Формат : AVC
Формат/Информация : Advanced Video Codec
Профиль формата : High@L4.1
Параметр CABAC формата : Да
Параметр ReFrames формата : 5 кадров
Идентификатор кодека : V_MPEG4/ISO/AVC
Продолжительность : 1 ч. 30 м.
Битрейт : 5503 Кбит/сек
Ширина : 1920 пикселей
Высота : 800 пикселей
Соотношение сторон : 2,40:1
Режим частоты кадров : Постоянный
Частота кадров : 23,976 (24000/1001) кадра/сек
Цветовое пространство : YUV
Субдискретизация насыщенности : 4:2:0
Битовая глубина : 8 бит
Тип развёртки : Прогрессивная
Бит/(Пиксели*Кадры) : 0.149
Размер потока : 3,48 Гбайт (73%)
Библиотека кодирования : x264 core 146 r2538 121396c
Настройки программы : cabac=1 / ref=5 / deblock=1:-3:-3 / analyse=0x3:0x133 / me=umh / subme=11 / psy=1 / psy_rd=1.00:0.10 / mixed_ref=1 / me_range=48 / chroma_me=1 / trellis=2 / 8x8dct=1 / cqm=0 / deadzone=21,11 / fast_pskip=0 / chroma_qp_offset=-3 / threads=12 / lookahead_threads=2 / sliced_threads=0 / nr=0 / decimate=0 / interlaced=0 / bluray_compat=0 / constrained_intra=0 / bframes=9 / b_pyramid=2 / b_adapt=2 / b_bias=0 / direct=1 / weightb=1 / open_gop=0 / weightp=2 / keyint=240 / keyint_min=23 / scenecut=40 / intra_refresh=0 / rc_lookahead=40 / rc=crf / mbtree=0 / crf=17.0 / qcomp=0.60 / qpmin=0 / qpmax=69 / qpstep=4 / vbv_maxrate=50000 / vbv_bufsize=62500 / crf_max=0.0 / nal_hrd=none / filler=0 / ip_ratio=1.40 / pb_ratio=1.30 / aq=1:1.00
Язык : English
Default : Да
Forced : Нет
Аудио #1
Идентификатор : 2
Формат : AC-3
Формат/Информация : Audio Coding 3
Расширение режима : CM (complete main)
Параметр Endianness формата : Big
Идентификатор кодека : A_AC3
Продолжительность : 1 ч. 30 м.
Вид битрейта : Постоянный
Битрейт : 384 Кбит/сек
Каналы : 6 каналов
Расположение каналов : Front: L C R, Side: L R, LFE
Частота : 48,0 КГц
Частота кадров : 31,250 кадров/сек (1536 spf)
Метод сжатия : С потерями
Размер потока : 249 Мбайт (5%)
Заголовок : Дублированный (iTunes Russia)
Язык : Russian
Default : Да
Forced : Нет
Аудио #2
Идентификатор : 3
Формат : DTS
Формат/Информация : Digital Theater Systems
Режим : 16
Параметр Endianness формата : Big
Идентификатор кодека : A_DTS
Продолжительность : 1 ч. 30 м.
Вид битрейта : Постоянный
Битрейт : 1509 Кбит/сек
Каналы : 6 каналов
Расположение каналов : Front: L C R, Side: L R, LFE
Частота : 48,0 КГц
Частота кадров : 93,750 кадра/сек (512 spf)
Битовая глубина : 24 бит
Метод сжатия : С потерями
Размер потока : 978 Мбайт (20%)
Язык : English
Default : Нет
Forced : Нет
Текст #1
Идентификатор : 4
Формат : UTF-8
Идентификатор кодека : S_TEXT/UTF8
Идентификатор кодека/Информация : UTF-8 Plain Text
Заголовок : Forced
Язык : Russian
Default : Да
Forced : Нет
Текст #2
Идентификатор : 5
Формат : UTF-8
Идентификатор кодека : S_TEXT/UTF8
Идентификатор кодека/Информация : UTF-8 Plain Text
Заголовок : Full
Язык : Russian
Default : Нет
Forced : Нет
Текст #3
Идентификатор : 6
Формат : UTF-8
Идентификатор кодека : S_TEXT/UTF8
Идентификатор кодека/Информация : UTF-8 Plain Text
Заголовок : Full
Язык : English
Default : Нет
Forced : Нет
Меню
00:00:00.000 : en:Chapter 01
00:05:09.350 : en:Chapter 02
00:12:29.415 : en:Chapter 03
00:18:27.189 : en:Chapter 04
00:18:27.856 : en:Chapter 05
00:25:26.399 : en:Chapter 06
00:31:39.814 : en:Chapter 07
00:37:24.367 : en:Chapter 08
00:43:19.930 : en:Chapter 09
00:52:19.219 : en:Chapter 10
01:01:04.452 : en:Chapter 11
01:07:04.979 : en:Chapter 12
01:14:43.187 : en:Chapter 13
01:19:26.595 : en:Chapter 14
01:23:24.332 : en:Chapter 15





Релиз от: Rip by:



   Похожие торренты   Торрент   Размер 
В этой теме нет новых непрочитанных сообщений. Аномализа / Anomalisa (2015) BDRip-AVC от ExKinoRay | iTunes

4 | 0

1.35 ГБ

В этой теме нет новых непрочитанных сообщений. Аномализа / Anomalisa (2015) BDRip 1080p | iTunes

13 | 0

4.61 ГБ

В этой теме нет новых непрочитанных сообщений. Аномализа / Anomalisa (2015) BDRemux 1080p от ivandubskoj | D | iTunes

12 | 3

22.59 ГБ

В этой теме нет новых непрочитанных сообщений. Аномализа / Anomalisa (2015) BDRip-AVC | iTunes

14 | 1

2.17 ГБ

В этой теме нет новых непрочитанных сообщений. Аномализа / Anomalisa (2015) BDRip 720p | iTunes

38 | 4

2.89 ГБ

В этой теме нет новых непрочитанных сообщений. Аномализа / Anomalisa (2015) BDRip от ExKinoRay | Лицензия

37 | 1

1.46 ГБ

В этой теме нет новых непрочитанных сообщений. Аномализа / Anomalisa (2015) BDRip 720p от ExKinoRay | Лицензия

24 | 4

3.75 ГБ




Вы не можете начинать темы
Вы не можете отвечать на сообщения
Вы не можете редактировать свои сообщения
Вы не можете удалять свои сообщения
Вы не можете добавлять вложения

Перейти:  
Для Мосгорсуда, Роскомнадзора и рекламодателей: mosgorsud-torrent[собачка]yandex.ru
 Вход
ppkBB3cker v.2 © 2008-2014 @ PPK
[ Time : 1.785s | 14 Queries | GZIP : Off ]

Торрент трекер RUTOR.IN, Не можете зайти на rutor.org? Какой новый адрес рутор? Какое зеркало рутор? Не работает rutor.org и зеркала? Тогда наш торрент специально для вас. Rutor.in неофициальное зеркало rutor. В случае если у Вас заблокирован rutor или вдруг Вы не можете на него зайти, то Вы без труда сможете скачать бесплатно и без рекламы последние новинки кино, игр, сериалов и прочего у нас, на Rutor.in. Не нужно использовать прокси, чтобы зайти на рутор, достаточно воспользоваться нашим ресурсом. Все новые фильмы, игры, сериалы, книги и музыка за 2013 и 2014 годы через торрент бесплатно. Скачивайте фильмы в хорошем качестве, игры для пк, xbox, playstation без регистрации. У нас вы найдете новые Зарубежные сериалы и Русские сериалы 2013, 2014, 2015 годов. Оставайтесь с нами, качайте любимые фильмы, игры, сериалы, книги и музыку.