img image001 image001 image001 image001 image001 image001 image001 image001 image001 image001 image001 image001 image001 image001 image001

Planets Sun Sun Sun
Статистика раздачи
Автор: Nickolas3434 | Размер: 14.38 ГБ | Добавлен: 02 июн 2016
Раздают: 6    Качают: 2
Скачать торрент
Скачать торрент
Описание торрента

СообщениеДобавлено: 02 июн 2016 


Информация о фильме
Название : Марти - железный мальчик
Оригинальное название : Iron Kid
Год выхода : 2006
Жанр : Мультсериал, фантастика, боевик, приключения
Режиссеры : Джэф Мартинес / Jeff Martinez
Роли озвучивали : Силия де Диего / Celia de Diego , Антонио Муиайоз / Antonio Muiioz , Адольфо Пастор / Adolfo Pastor , Антонио Илэно / Antonio Ilano , Хуан Рюеда / Juan Rueda
Роли дублировали : Александр Гаврилин / Alexander Gavrilin, Ольга Шорохова / Olga Shorohova, Пётр Иващенко / Peter Ivashchenko, Рудольф Панков / Rudolf Pankov

Описание : История мальчика Марти, родившегося в далеком будущем. Марти живет тем, что ищет старые запчасти для роботов и продает их. Однажды Марти нашел металлический кулак, оказавшийся не просто ржавой железкой, а настоящим артефактом, изменившим жизнь мальчика.
Железный Кулак, найденный Марти на свалке отходов робототехники, становится частью мальчика, полностью подчиняясь ему и наделяя Марти неимоверными качествами Супергероя. Теперь мальчика ждут необыкновенные приключения, которые он разделит со своими верными друзьями. Дети отправятся в опасное путешествие через Большую Пустыню, чтобы оказаться в самом сердце вечной борьбы Добра и Зла. Марти многому научится и узнает древнюю легенду, связанную с Железным Кулаком и его прежним владельцем.
Страна : Республика Корея, Испания
Выпущено : BRB Internacional S.A.
Продолжительность : ~24 минуты каждая серия
Перевод : Профессиональный (полное дублирование)
Автор рипа и релиза : Страник 2.0
Файл
Формат видео : MKV
Качество : DVDRip
Видео : AVC, 720x544 (4:3), 25.0 fps, 2756 Kbps (0.281 bit/pixel)
Звук 1: AC3, 48.0 KHz, 2 ch, ~192 Kbps (Русский)
Звук 2: AC3, 48.0 KHz, 2 ch, ~128 Kbps (Испанский)
Звук 3: AC3, 48.0 KHz, 2 ch, ~128 Kbps (Английский)
Субтитры : Отсутствуют

01. Легендарный кулак (El Puño Legendario)
02. Наследник Эона (El Heredero Del Puño)
03. Начало путешествия (Comineza El Viaje)
04. Не только сила (La Fuerza No Lo Es Todo)
05. Секрет Алли (El Secreto De Ally)
06. Госпожа Оранж (Orange Mama)
07. Большой чемпионат по борьбе (El Gran Campeonato De Lucha Libre)
08. Продолжение битвы (La Lucha Continua)
09. Бегство из оранжевой долины (Huida Del Valle Naranja)
10. Отака Максав (El Ateque De Los Maxes)
11. Цель близка (Frente Al Destino)
12. 28 деревянных солдатиков (Los 18 Hombres De Madera)
13. Рождение война (Nace Un Guerrero)
14. Путь к железной башне (Hacia La Torre De Hierro)
15. Борись, Алли (¡Resiste, Ally!)
16. Падение башни (La Caida De La Torre)
17. Ночные кошмары (Pesadillas)
18. Марти не управляем (Fuera De Control)
19. 4 невидимых барона (Los Cuatro Darones Invencibles)
20. Храм железной души (El Templo Del Alma De Hierro)
21. Возвращение генерала (El General Despierta)
22. Бог ледника (El Dios Del Glaciar)
23. Бунт Кана (La Rebelion De Khan)
24. Вперёд (¡A La Carga!)
25. Последняя битва (часть 1) (La Batalla Final (Parte 1))
26. Последняя битва (часть 2) (La Batalla Final (Parte 2))



General
Unique ID : 214425892605252334270568159832903728156 (0xA150ECBBE4FA5A6480F8CD0A5C173C1C)
Complete name : E:/Torrent_2/Iron Kid (2006, DVDRip-AVC, RUS,SPA,ENG) [Stranik 2.0]/01. The Legendary Fist.mkv
Format : Matroska
Format version : Version 2
File size : 506 MiB
Duration : 22mn 25s
Overall bit rate : 3 154 Kbps
Encoded date : UTC 2016-05-30 12:39:28
Writing application : mkvmerge v5.5.0 ('Healer') built on Apr 6 2012 21:43:24
Writing library : libebml v1.2.3 + libmatroska v1.3.0
DURATION : 00:44:44.520000000
NUMBER_OF_FRAMES : 67113
NUMBER_OF_BYTES : 924927605
_STATISTICS_WRITING_APP : mkvmerge v8.5.2 ('Crosses') 32bit
_STATISTICS_WRITING_DATE_UTC : 2016-05-27 03:00:28
_STATISTICS_TAGS : BPS DURATION NUMBER_OF_FRAMES NUMBER_OF_BYTES
Video #1
ID : 1
Format : AVC
Format/Info : Advanced Video Codec
Format profile : High@L3.1
Format settings, CABAC : Yes
Format settings, ReFrames : 7 frames
Codec ID : V_MPEG4/ISO/AVC
Duration : 22mn 25s
Bit rate : 2 756 Kbps
Width : 720 pixels
Height : 544 pixels
Display aspect ratio : 4:3
Frame rate mode : Constant
Frame rate : 25.000 fps
Color space : YUV
Chroma subsampling : 4:2:0
Bit depth : 8 bits
Scan type : Progressive
Bits/(Pixel*Frame) : 0.281
Stream size : 424 MiB (84%)
Writing library : x264 core 148 r2638 7599210
Encoding settings : cabac=1 / ref=7 / deblock=1:1:1 / analyse=0x3:0x113 / me=umh / subme=11 / psy=1 / psy_rd=0.40:0.00 / mixed_ref=1 / me_range=28 / chroma_me=0 / trellis=2 / 8x8dct=1 / cqm=0 / deadzone=21,11 / fast_pskip=1 / chroma_qp_offset=-2 / threads=3 / lookahead_threads=1 / sliced_threads=0 / nr=0 / decimate=1 / interlaced=0 / bluray_compat=0 / constrained_intra=0 / bframes=16 / b_pyramid=2 / b_adapt=2 / b_bias=0 / direct=3 / weightb=1 / open_gop=0 / weightp=2 / keyint=300 / keyint_min=25 / scenecut=40 / intra_refresh=0 / rc_lookahead=40 / rc=2pass / mbtree=1 / bitrate=2756 / ratetol=1.0 / qcomp=0.60 / qpmin=0 / qpmax=69 / qpstep=4 / cplxblur=20.0 / qblur=0.5 / ip_ratio=1.40 / aq=1:0.60
Language : Spanish
Default : Yes
Forced : No
Audio #2
ID : 2
Format : AC-3
Format/Info : Audio Coding 3
Mode extension : CM (complete main)
Format settings, Endianness : Big
Codec ID : A_AC3
Duration : 22mn 25s
Bit rate mode : Constant
Bit rate : 192 Kbps
Channel(s) : 2 channels
Channel positions : Front: L R
Sampling rate : 48.0 KHz
Bit depth : 16 bits
Compression mode : Lossy
Stream size : 30.8 MiB (6%)
Title : DUB
Language : Russian
Default : Yes
Forced : No
Audio #3
ID : 3
Format : AC-3
Format/Info : Audio Coding 3
Mode extension : CM (complete main)
Format settings, Endianness : Big
Codec ID : A_AC3
Duration : 22mn 25s
Bit rate mode : Constant
Bit rate : 128 Kbps
Channel(s) : 2 channels
Channel positions : Front: L R
Sampling rate : 48.0 KHz
Bit depth : 16 bits
Compression mode : Lossy
Stream size : 20.5 MiB (4%)
Title : Original
Language : Spanish
Default : No
Forced : No
Audio #4
ID : 4
Format : AC-3
Format/Info : Audio Coding 3
Mode extension : CM (complete main)
Format settings, Endianness : Big
Codec ID : A_AC3
Duration : 22mn 25s
Bit rate mode : Constant
Bit rate : 128 Kbps
Channel(s) : 2 channels
Channel positions : Front: L R
Sampling rate : 48.0 KHz
Bit depth : 16 bits
Compression mode : Lossy
Stream size : 20.5 MiB (4%)
Title : Original
Language : English
Default : No
Forced : No

Моя максимальная скорость отдачи 100КБ/c
Раздаю с 7:00 до 1:00 по Москве





   Похожие торренты   Торрент   Размер 
В этой теме нет новых непрочитанных сообщений. OST - Марти — железный мальчик / Iron Kid (2006) MP3 от Stranik 2.0

0 | 4

16.13 МБ

В этой теме нет новых непрочитанных сообщений. Марти - железный мальчик / Iron Kid [01-26 из 26] (2006) DVDRip | D

337 | 2

7.61 ГБ

В этой теме нет новых непрочитанных сообщений. Марти - железный мальчик / Iron Kid [01-26 из 26] (2006) DVDRip-AVC

18 | 11

8.64 ГБ

В этой теме нет новых непрочитанных сообщений. Марти - железный мальчик / Iron Kid [01-26 из 26] (2006) DVD9

0 | 3

14.51 ГБ

В этой теме нет новых непрочитанных сообщений. Медаль за Отвагу: Железный Кулак / Medal of Honor: Iron Fist (2006) PC

5046 | 435

967.39 МБ

В этой теме нет новых непрочитанных сообщений. Мальчик по прозвищу «Стерва» / Мальчик-бандитка / Oira sukeban (2006) DVDRip

8 | 5

703.95 МБ

В этой теме нет новых непрочитанных сообщений. Железный Чхоль / Как из стали / Kang-chul-i / Iron Cheol / Tough as Iron (2013) HDTV 720p от CINEMANIA | L2

276 | 17

1.46 ГБ




Вы не можете начинать темы
Вы не можете отвечать на сообщения
Вы не можете редактировать свои сообщения
Вы не можете удалять свои сообщения
Вы не можете добавлять вложения

Перейти:  
Для Мосгорсуда, Роскомнадзора и рекламодателей: mosgorsud-torrent[собачка]yandex.ru
 Вход
ppkBB3cker v.2 © 2008-2014 @ PPK
[ Time : 0.021s | 14 Queries | GZIP : Off ]

Торрент трекер RUTOR.IN, Не можете зайти на rutor.org? Какой новый адрес рутор? Какое зеркало рутор? Не работает rutor.org и зеркала? Тогда наш торрент специально для вас. Rutor.in неофициальное зеркало rutor. В случае если у Вас заблокирован rutor или вдруг Вы не можете на него зайти, то Вы без труда сможете скачать бесплатно и без рекламы последние новинки кино, игр, сериалов и прочего у нас, на Rutor.in. Не нужно использовать прокси, чтобы зайти на рутор, достаточно воспользоваться нашим ресурсом. Все новые фильмы, игры, сериалы, книги и музыка за 2013 и 2014 годы через торрент бесплатно. Скачивайте фильмы в хорошем качестве, игры для пк, xbox, playstation без регистрации. У нас вы найдете новые Зарубежные сериалы и Русские сериалы 2013, 2014, 2015 годов. Оставайтесь с нами, качайте любимые фильмы, игры, сериалы, книги и музыку.