img image001 image001 image001 image001 image001 image001 image001 image001 image001 image001 image001 image001 image001 image001 image001

Planets Sun Sun Sun
Статистика раздачи
Автор: Nickolas3434 | Размер: 1.46 ГБ | Добавлен: 04 июн 2016
Раздают: 125    Качают: 8
Скачать торрент
Скачать торрент
Описание торрента

СообщениеДобавлено: 04 июн 2016 

Спирит: Душа прерий
Spirit: Stallion of the Cimarron
«Some legends can never be tamed»


Страна: США
Жанр: мультфильм, приключения, семейный, вестерн
Год выпуска: 2002
Продолжительность: 01:23:28
Перевод: Профессиональный (полное дублирование) [Лицензия R5], песни на русском
Субтитры: русские, английские
Оригинальная аудиодорожка: нет
Режиссер: Келли Эсбёри / Kelly Asbury, Лорна Кук / Lorna Cook
В ролях: Мэтт Дэймон, Джеймс Кромуэлл, Дэниэл Студи, Чоппер Бернет, Джеф ЛеБо, Джон Рубано, Ричард МакГонагл, Мэтт Левин, Адам Пол, Роберт Кайт, Чарльз Нэпьер, Мередит Уэллс
Описание:
Этот приключенческий мультфильм рассказывает историю дикого жеребца мустанга Спирита, путешествующего по территории всей Америки. Храбрый Спирит заводит дружбу с молодым индейцем Ручейком и находит любовь с красивой кобылой по имени Гроза.
Все счастливы до тех пор, пока на жеребца не положили глаз люди, которые хотят сделать из него военную лошадь...
Отдельно:
Перевод: Профессиональный (полное дублирование) [Лицензия R5], песни на английском / 448 Кбит/сек, 48,0 КГц, 6 каналов, AC-3
Оригинальная аудиодорожка: Английский / 640 Кбит/сек, 48,0 КГц, 6 каналов, AC-3

Релиз:
Автор рипа: stalkerok
Сэмпл
Качество видео: BDRip-AVC [Спирит Душа Прерий - Spirit Stallion of the Cimarron 2002 1080p BDRemux / rutor]
Формат видео: MKV
Видео кодек: AVC
Аудио кодек: AC3
Видео: 2052 Кбит/сек, 1152x492 (2.35:1), 23,976 кадр/сек, AVC
Аудио: русский, 448 Кбит/сек, 48 КГц, 16 бит, 5.1, AC3
Навигация по главам: есть

Общее
Уникальный идентификатор : 189785350280498416433177397634774717374 (0x8EC7543384F59A4E83366D3BD2E1D3BE)
Полное имя : M:2RipsSpirit Stallion of the CimarronSpirit Stallion of the Cimarron.2002.BDRip-AVC.Dub.1.45Gb.stalkerok.new-team.mkv
Формат : Matroska
Версия формата : Version 4 / Version 2
Размер файла : 1,46 Гбайт
Продолжительность : 1 ч. 23 м.
Общий поток : 2500 Кбит/сек
Название фильма : Spirit: Stallion of the Cimarron (2002) (New-Team) (Rip by stalkerok)
Дата кодирования : UTC 2016-06-03 15:07:47
Программа кодирования : mkvmerge v8.6.1 ('Flying') 64bit
Библиотека кодирования : libebml v1.3.3 + libmatroska v1.4.4
Видео
Идентификатор : 1
Формат : AVC
Формат/Информация : Advanced Video Codec
Профиль формата : High@L4.1
Параметр CABAC формата : Да
Параметр ReFrames формата : 14 кадров
Идентификатор кодека : V_MPEG4/ISO/AVC
Продолжительность : 1 ч. 23 м.
Битрейт : 2052 Кбит/сек
Ширина : 1152 пикселя
Высота : 492 пикселя
Соотношение сторон : 2,35:1
Режим частоты кадров : Постоянный
Частота кадров : 23,976 (24000/1001) кадра/сек
Цветовое пространство : YUV
Субдискретизация насыщенности : 4:2:0
Битовая глубина : 8 бит
Тип развёртки : Прогрессивная
Бит/(Пиксели*Кадры) : 0.151
Размер потока : 1,20 Гбайт (82%)
Заголовок : Spirit: Stallion of the Cimarron (2002) (New-Team) (Rip by stalkerok)
Библиотека кодирования : x264 core 148 r2665kMod a01e339
Настройки программы : cabac=1 / ref=14 / deblock=1:-3:-2 / analyse=0x3:0x133 / me=umh / subme=10 / psy=1 / fade_compensate=0.00 / psy_rd=1.00:0.00 / mixed_ref=1 / me_range=32 / chroma_me=1 / trellis=2 / 8x8dct=1 / cqm=0 / deadzone=21,11 / fast_pskip=0 / chroma_qp_offset=-2 / threads=12 / lookahead_threads=3 / sliced_threads=0 / nr=0 / decimate=0 / interlaced=0 / bluray_compat=0 / constrained_intra=0 / fgo=0 / bframes=15 / b_pyramid=2 / b_adapt=2 / b_bias=0 / direct=3 / weightb=1 / open_gop=0 / weightp=2 / keyint=240 / keyint_min=23 / scenecut=40 / intra_refresh=0 / rc_lookahead=60 / rc=2pass / mbtree=0 / bitrate=2052 / ratetol=1.0 / qcomp=0.65 / qpmin=0 / qpmax=69 / qpstep=4 / cplxblur=20.0 / qblur=0.5 / vbv_maxrate=50000 / vbv_bufsize=62500 / nal_hrd=none / filler=0 / ip_ratio=1.40 / pb_ratio=1.30 / aq=1:0.80
Default : Да
Forced : Нет
Аудио
Идентификатор : 2
Формат : AC-3
Формат/Информация : Audio Coding 3
Расширение режима : CM (complete main)
Параметр Endianness формата : Big
Идентификатор кодека : A_AC3
Продолжительность : 1 ч. 23 м.
Вид битрейта : Постоянный
Битрейт : 448 Кбит/сек
Каналы : 6 каналов
Расположение каналов : Front: L C R, Side: L R, LFE
Частота : 48,0 КГц
Частота кадров : 31,250 кадров/сек (1536 spf)
Метод сжатия : С потерями
Размер потока : 268 Мбайт (18%)
Заголовок : Дубляж, R5 - песни на русском
Язык : Russian
Default : Да
Forced : Нет
Текст #1
Идентификатор : 3
Формат : UTF-8
Идентификатор кодека : S_TEXT/UTF8
Идентификатор кодека/Информация : UTF-8 Plain Text
Продолжительность : 1 ч. 15 м.
Битрейт : 37 бит/сек
Count of elements : 413
Размер потока : 20,8 Кбайт (0%)
Язык : Russian
Default : Нет
Forced : Нет
Текст #2
Идентификатор : 4
Формат : UTF-8
Идентификатор кодека : S_TEXT/UTF8
Идентификатор кодека/Информация : UTF-8 Plain Text
Продолжительность : 1 ч. 23 м.
Битрейт : 46 бит/сек
Count of elements : 1389
Размер потока : 28,5 Кбайт (0%)
Язык : English
Default : Нет
Forced : Нет
Меню
00:00:00.000 : en:Young Spirit
00:07:32.410 : en:Leader of His Herd
00:11:29.856 : en:The Journey Begins
00:18:15.011 : en:Spirit Meets Man
00:20:40.281 : en:A Strange New Place
00:23:22.359 : en:You Can't Break Me
00:25:35.492 : en:This One Seemed Different
00:30:11.184 : en:The Great Escape
00:35:24.831 : en:Indian Camp
00:38:47.951 : en:Rain's World
00:42:06.149 : en:Torn Two Ways
00:43:52.547 : en:"Go Home"
00:48:10.638 : en:The Cavalry Attacks
00:53:29.289 : en:Remember Who You Are
00:57:18.810 : en:Master Plan
01:00:49.437 : en:Breaking Free
01:04:26.863 : en:Leap of Faith
01:11:14.562 : en:Farewell My Friend
01:14:07.234 : en:The Return
01:16:12.109 : en:End Credits





   Похожие торренты   Торрент   Размер 
В этой теме нет новых непрочитанных сообщений. Спирит: Душа прерий / Spirit: Stallion of the Cimarron (2002) BDRip-AVC от New-Team | Лицензия

47 | 4

746.16 МБ

В этой теме нет новых непрочитанных сообщений. Спирит: Душа прерий / Spirit: Stallion of the Cimarron 2002 1080p BDRip-AVC | 60 fps | D, P

138 | 23

8.34 ГБ

В этой теме нет новых непрочитанных сообщений. Спирит: Душа прерий / Spirit: Stallion of the Cimarron (2002) BDrip 1080p | P

79 | 13

21.07 ГБ

В этой теме нет новых непрочитанных сообщений. Спирит: Душа прерий / Spirit: Stallion of the Cimarron (2002) BDRip 720p

1452 | 51

2.35 ГБ

В этой теме нет новых непрочитанных сообщений. Спирит: Душа прерий / Spirit: Stallion of the Cimarron (2002) BDRip-AVC от MediaClub | D, P

248 | 44

1.95 ГБ

В этой теме нет новых непрочитанных сообщений. Спирит: Душа прерий / Spirit: Stallion of the Cimarron (2002) BDRip 720p от HDCLUB | D, P

106 | 11

3.74 ГБ

В этой теме нет новых непрочитанных сообщений. Спирит: Душа прерий / Spirit: Stallion of the Cimarron (2002) BDRip 1080p от MediaClub | D, P

326 | 62

4.11 ГБ




Вы не можете начинать темы
Вы не можете отвечать на сообщения
Вы не можете редактировать свои сообщения
Вы не можете удалять свои сообщения
Вы не можете добавлять вложения

Перейти:  
Для Мосгорсуда, Роскомнадзора и рекламодателей: mosgorsud-torrent[собачка]yandex.ru
 Вход
ppkBB3cker v.2 © 2008-2014 @ PPK
[ Time : 0.037s | 16 Queries | GZIP : Off ]

Торрент трекер RUTOR.IN, Не можете зайти на rutor.org? Какой новый адрес рутор? Какое зеркало рутор? Не работает rutor.org и зеркала? Тогда наш торрент специально для вас. Rutor.in неофициальное зеркало rutor. В случае если у Вас заблокирован rutor или вдруг Вы не можете на него зайти, то Вы без труда сможете скачать бесплатно и без рекламы последние новинки кино, игр, сериалов и прочего у нас, на Rutor.in. Не нужно использовать прокси, чтобы зайти на рутор, достаточно воспользоваться нашим ресурсом. Все новые фильмы, игры, сериалы, книги и музыка за 2013 и 2014 годы через торрент бесплатно. Скачивайте фильмы в хорошем качестве, игры для пк, xbox, playstation без регистрации. У нас вы найдете новые Зарубежные сериалы и Русские сериалы 2013, 2014, 2015 годов. Оставайтесь с нами, качайте любимые фильмы, игры, сериалы, книги и музыку.