img image001 image001 image001 image001 image001 image001 image001 image001 image001 image001 image001 image001 image001 image001 image001

Planets Sun Sun Sun
Статистика раздачи
Автор: Nickolas3434 | Размер: 1.45 ГБ | Добавлен: 04 июн 2016
Раздают: 2354    Качают: 89
Скачать торрент
Скачать торрент
Описание торрента

СообщениеДобавлено: 04 июн 2016 


Информация о фильме
Название: Робинзон Крузо: Очень обитаемый остров
Оригинальное название: Robinson Crusoe
Год выхода: 2016
Жанр: Мультфильм, комедия, приключения
Режиссер: Винсент Кестелут, Бен Стассен
В ролях: Рон Аллен, Джордж Бэббит, Лайла Берзиньш, Илька Бессин, Джои Камен, Джефф Дусетте, Сэнди Фокс.
О фильме:
Все знают историю о Робинзоне Крузо, попавшем на необитаемый остров. Однако, как же можно назвать его необитаемым, если он населен разнообразными веселыми животными и птицами..? Они очень удивились, впервые встретив это странное существо, и даже приняли его за морское чудовище. Попугаю по кличке Вторник и его друзьям — хамелеону, тапиру и другим обитателям острова предстоит поближе познакомиться с незнакомым зверем «человеком» и вместе с ним пережить массу опасных и веселых приключений...

Страна: Франция, Бельгия
Студия: Studio Canal, nWave Pictures, uFilm
Продолжительность: 01:30:27
Перевод: Дублированный [iTunes]
Файл
Качество: HDRip
Видео: XviD, 720x304 (2.35:1), 23.976 fps, 1907 Kbps (0.363 bit/pixel)
Звук: AC-3, 48.0 KHz, 6 ch, 384 Kbps
General
Complete name : Kpuzo.2016.XviD.HDRip.by.GeneralFilm.avi
Format : AVI
Format/Info : Audio Video Interleave
File size : 1.45 GiB
Duration : 1h 30mn
Overall bit rate : 2 300 Kbps
Writing application : VirtualDubMod 1.5.10.3 | www.virtualdub-fr.org || (build 2550/release)
Writing library : VirtualDubMod build 2550/release
Video
ID : 0
Format : MPEG-4 Visual
Format profile : Advanced Simple@L5
Format settings, BVOP : 1
Format settings, QPel : No
Format settings, GMC : No warppoints
Format settings, Matrix : Custom
Codec ID : XVID
Codec ID/Hint : XviD
Duration : 1h 30mn
Bit rate : 1 907 Kbps
Width : 720 pixels
Height : 304 pixels
Display aspect ratio : 2.35:1
Frame rate : 23.976 (23976/1000) fps
Color space : YUV
Chroma subsampling : 4:2:0
Bit depth : 8 bits
Scan type : Progressive
Compression mode : Lossy
Bits/(Pixel*Frame) : 0.363
Stream size : 1.21 GiB (83%)
Writing library : XviD 73
Audio
ID : 1
Format : AC-3
Format/Info : Audio Coding 3
Mode extension : CM (complete main)
Format settings, Endianness : Big
Codec ID : 2000
Duration : 1h 30mn
Bit rate mode : Constant
Bit rate : 384 Kbps
Channel(s) : 6 channels
Channel positions : Front: L C R, Side: L R, LFE
Sampling rate : 48.0 KHz
Frame rate : 31.250 fps (1536 spf)
Compression mode : Lossy
Stream size : 248 MiB (17%)
Alignment : Split accross interleaves
Interleave, duration : 42 ms (1.00 video frame)
Interleave, preload duratio : 500 ms






Релиз от:
Исходник: KruZZo.2O16.D.BDRip.1O8OP.mkv



   Похожие торренты   Торрент   Размер 
В этой теме нет новых непрочитанных сообщений. Робинзон Крузо: Очень обитаемый остров / Robinson Crusoe (2016) HDRip от Generalfilm | КПК | iTunes

206 | 7

378.12 МБ

В этой теме нет новых непрочитанных сообщений. Робинзон Крузо: Очень обитаемый остров / Robinson Crusoe (2016) HDRip | КПК | iTunes

210 | 6

408.79 МБ

В этой теме нет новых непрочитанных сообщений. Робинзон Крузо: Очень обитаемый остров / Robinson Crusoe (2016) HDRip | D | iTunes

12446 | 670

1.37 ГБ

В этой теме нет новых непрочитанных сообщений. Робинзон Крузо: Очень обитаемый остров / Robinson Crusoe (2016) WEB-DL 720p | iTunes

1387 | 28

2.71 ГБ

В этой теме нет новых непрочитанных сообщений. Робинзон Крузо: Очень обитаемый остров / Robinson Crusoe (2016) WEB-DLRip-AVC | iTunes

191 | 2

1.82 ГБ

В этой теме нет новых непрочитанных сообщений. Робинзон Крузо: Очень обитаемый остров / Robinson Crusoe (2016) WEB-DLRip-AVC | iTunes

213 | 29

680.48 МБ

В этой теме нет новых непрочитанных сообщений. Робинзон Крузо: Очень обитаемый остров / Robinson Crusoe (2016) WEB-DLRip | iTunes

11954 | 223

1.37 ГБ




Вы не можете начинать темы
Вы не можете отвечать на сообщения
Вы не можете редактировать свои сообщения
Вы не можете удалять свои сообщения
Вы не можете добавлять вложения

Перейти:  
Для Мосгорсуда, Роскомнадзора и рекламодателей: mosgorsud-torrent[собачка]yandex.ru
 Вход
ppkBB3cker v.2 © 2008-2014 @ PPK
[ Time : 0.430s | 15 Queries | GZIP : Off ]

Торрент трекер RUTOR.IN, Не можете зайти на rutor.org? Какой новый адрес рутор? Какое зеркало рутор? Не работает rutor.org и зеркала? Тогда наш торрент специально для вас. Rutor.in неофициальное зеркало rutor. В случае если у Вас заблокирован rutor или вдруг Вы не можете на него зайти, то Вы без труда сможете скачать бесплатно и без рекламы последние новинки кино, игр, сериалов и прочего у нас, на Rutor.in. Не нужно использовать прокси, чтобы зайти на рутор, достаточно воспользоваться нашим ресурсом. Все новые фильмы, игры, сериалы, книги и музыка за 2013 и 2014 годы через торрент бесплатно. Скачивайте фильмы в хорошем качестве, игры для пк, xbox, playstation без регистрации. У нас вы найдете новые Зарубежные сериалы и Русские сериалы 2013, 2014, 2015 годов. Оставайтесь с нами, качайте любимые фильмы, игры, сериалы, книги и музыку.
cron