img image001 image001 image001 image001 image001 image001 image001 image001 image001 image001 image001 image001 image001 image001 image001

Planets Sun Sun Sun
Статистика раздачи
Автор: Nickolas3434 | Размер: 2.06 ГБ | Добавлен: 08 июн 2016
Раздают: 2695    Качают: 116
Скачать торрент
Скачать торрент
Описание торрента

СообщениеДобавлено: 08 июн 2016 

Информация о фильме
Название: Зверополис
Оригинальное название: Zootopia
Год выхода: 2016
Жанр: Мультфильм, боевик, комедия, криминал, приключения, семейный
Режиссер: Байрон Ховард, Рич Мур, Джаред Буш
В ролях: Джиннифер Гудвин, Джейсон Бейтман, Идрис Эльба, Дженни Слейт, Нейт Торренс, Бонни Хант
Роли дублировали: Мария Ивакова, Антон Лаврентьев, Борис Хасанов, Мария Аронова, Андрей Мошков
О фильме: Добро пожаловать в Зверополис — современный город, населенный самыми разными животными, от огромных слонов до крошечных мышек. Зверополис разделен на районы, полностью повторяющие естественную среду обитания разных жителей — здесь есть и элитный район Площадь Сахары и неприветливый Тундратаун. В этом городе появляется новый офицер полиции, жизнерадостная зайчиха Джуди Хоппс, которая с первых дней работы понимает, как сложно быть маленькой и пушистой среди больших и сильных полицейских. Джуди хватается за первую же возможность проявить себя, несмотря на то, что ее партнером будет болтливый хитрый лис Ник Уайлд. Вдвоем им предстоит раскрыть сложное дело, от которого будет зависеть судьба всех обитателей Зверополиса...


Выпущено: США / Walt Disney Animation Studios, Walt Disney Pictures
Продолжительность:01:48:23
Перевод: Дублированный [Чистый звук - Line]
Субтитры: Английские
Файл
Качество: HDRip (AVC)
Видео: MPEG-4 AVC, 1888 Kбит/с, 1024x428
Аудио: Русский (AC3, 2 ch, 192 Кбит/с), английский (AC3, 6 ch, 448 Кбит/с)
General
Unique ID : 247436876543308065772275956076766983211 (0xBA269BE6A3E5736BB522ABBA157E742B)
Complete name : C:Zootopia.2016.D.HDRip.AVC.ExKinoRay.mkv
Format : Matroska
Format version : Version 4 / Version 2
File size : 1.92 GiB
Duration : 1h 48mn
Overall bit rate : 2 530 Kbps
Movie name : Zootopia 2016 from ExKinoRay
Encoded date : UTC 2016-05-21 04:13:35
Writing application : mkvmerge v6.6.0 ('The Edge Of The In Between') built on Dec 1 2013 17:55:00
Writing library : libebml v1.3.0 + libmatroska v1.4.1
Video
ID : 1
Format : AVC
Format/Info : Advanced Video Codec
Format profile : High@L4.1
Format settings, CABAC : Yes
Format settings, ReFrames : 12 frames
Codec ID : V_MPEG4/ISO/AVC
Duration : 1h 48mn
Bit rate : 1 888 Kbps
Width : 1 024 pixels
Height : 428 pixels
Display aspect ratio : 2.40:1
Frame rate mode : Constant
Frame rate : 23.976 fps
Color space : YUV
Chroma subsampling : 4:2:0
Bit depth : 8 bits
Scan type : Progressive
Bits/(Pixel*Frame) : 0.180
Stream size : 1.39 GiB (73%)
Title : Enigma
Writing library : x264 core 142 r2431 ac76440
Encoding settings : cabac=1 / ref=12 / deblock=1:-2:-2 / analyse=0x3:0x113 / me=umh / subme=10 / psy=1 / psy_rd=1.05:0.10 / mixed_ref=1 / me_range=32 / chroma_me=1 / trellis=2 / 8x8dct=1 / cqm=0 / deadzone=21,11 / fast_pskip=0 / chroma_qp_offset=-3 / threads=12 / lookahead_threads=2 / sliced_threads=0 / nr=0 / decimate=0 / interlaced=0 / bluray_compat=0 / constrained_intra=0 / bframes=9 / b_pyramid=2 / b_adapt=2 / b_bias=0 / direct=3 / weightb=1 / open_gop=0 / weightp=2 / keyint=240 / keyint_min=23 / scenecut=40 / intra_refresh=0 / rc_lookahead=40 / rc=2pass / mbtree=0 / bitrate=1888 / ratetol=1.0 / qcomp=0.60 / qpmin=0 / qpmax=51 / qpstep=4 / cplxblur=20.0 / qblur=0.5 / vbv_maxrate=50000 / vbv_bufsize=62500 / nal_hrd=none / filler=0 / ip_ratio=1.40 / pb_ratio=1.30 / aq=1:1.00
Language : English
Default : Yes
Forced : No
Color primaries : BT.709
Transfer characteristics : BT.709
Matrix coefficients : BT.709
Audio #1
ID : 2
Format : AC-3
Format/Info : Audio Coding 3
Mode extension : CM (complete main)
Format settings, Endianness : Big
Codec ID : A_AC3
Duration : 1h 48mn
Bit rate mode : Constant
Bit rate : 192 Kbps
Channel(s) : 2 channels
Channel positions : Front: L R
Sampling rate : 48.0 KHz
Bit depth : 16 bits
Compression mode : Lossy
Stream size : 149 MiB (8%)
Title : Dub (Line)
Language : Russian
Default : Yes
Forced : No
Audio #2
ID : 3
Format : AC-3
Format/Info : Audio Coding 3
Mode extension : CM (complete main)
Format settings, Endianness : Big
Codec ID : A_AC3
Duration : 1h 48mn
Bit rate mode : Constant
Bit rate : 448 Kbps
Channel(s) : 6 channels
Channel positions : Front: L C R, Side: L R, LFE
Sampling rate : 48.0 KHz
Bit depth : 16 bits
Compression mode : Lossy
Stream size : 348 MiB (18%)
Language : English
Default : No
Forced : No
Text #1
ID : 4
Format : UTF-8
Codec ID : S_TEXT/UTF8
Codec ID/Info : UTF-8 Plain Text
Title : full
Language : English
Default : No
Forced : No
Text #2
ID : 5
Format : UTF-8
Codec ID : S_TEXT/UTF8
Codec ID/Info : UTF-8 Plain Text
Title : SDH
Language : English
Default : No
Forced : No
Menu
00:00:00.000 : en:00:00:00.000
00:00:59.559 : en:00:00:59.559
00:05:50.100 : en:00:05:50.100
00:10:05.563 : en:00:10:05.563
00:14:31.537 : en:00:14:31.537
00:18:24.019 : en:00:18:24.019
00:26:03.353 : en:00:26:03.353
00:30:57.439 : en:00:30:57.439
00:37:07.100 : en:00:37:07.100
00:40:43.441 : en:00:40:43.441
00:44:31.752 : en:00:44:31.752
00:51:40.430 : en:00:51:40.430
00:55:40.378 : en:00:55:40.378
01:00:48.269 : en:01:00:48.269
01:03:37.855 : en:01:03:37.855
01:09:19.822 : en:01:09:19.822
01:13:39.165 : en:01:13:39.165
01:17:07.372 : en:01:17:07.372
01:21:52.366 : en:01:21:52.366
01:28:19.169 : en:01:28:19.169
01:32:43.433 : en:01:32:43.433
01:36:12.141 : en:01:36:12.141


Релиз от:
Автор релиза:



   Похожие торренты   Торрент   Размер 
В этой теме нет новых непрочитанных сообщений. Зверополис / Zootopia (2016) HDRip-AVC от ExKinoRay | Line

1107 | 18

1.92 ГБ

В этой теме нет новых непрочитанных сообщений. Зверополис / Zootopia (2016) BDRip 1080p от ExKinoRay | Line

1504 | 27

11.31 ГБ

В этой теме нет новых непрочитанных сообщений. Зверополис / Zootopia (2016) BDRemux 1080p от ExKinoRay | Line

0 | 18

21.95 ГБ

В этой теме нет новых непрочитанных сообщений. Зверополис / Zootopia (2016) BDRemux 1080p от ExKinoRay | Line

639 | 59

21.8 ГБ

В этой теме нет новых непрочитанных сообщений. Зверополис / Zootopia (2016) HDRip | Line

2802 | 194

2.05 ГБ

В этой теме нет новых непрочитанных сообщений. Зверополис / Zootopia (2016) HDRip от GeneralFilm | D | Line

22078 | 675

1.45 ГБ

В этой теме нет новых непрочитанных сообщений. Зверополис / Zootopia (2016) HDRip от Scarabey | Line

455 | 6

746.12 МБ




Вы не можете начинать темы
Вы не можете отвечать на сообщения
Вы не можете редактировать свои сообщения
Вы не можете удалять свои сообщения
Вы не можете добавлять вложения

Перейти:  
Для Мосгорсуда, Роскомнадзора и рекламодателей: mosgorsud-torrent[собачка]yandex.ru
 Вход
ppkBB3cker v.2 © 2008-2014 @ PPK
[ Time : 0.023s | 16 Queries | GZIP : Off ]

Торрент трекер RUTOR.IN, Не можете зайти на rutor.org? Какой новый адрес рутор? Какое зеркало рутор? Не работает rutor.org и зеркала? Тогда наш торрент специально для вас. Rutor.in неофициальное зеркало rutor. В случае если у Вас заблокирован rutor или вдруг Вы не можете на него зайти, то Вы без труда сможете скачать бесплатно и без рекламы последние новинки кино, игр, сериалов и прочего у нас, на Rutor.in. Не нужно использовать прокси, чтобы зайти на рутор, достаточно воспользоваться нашим ресурсом. Все новые фильмы, игры, сериалы, книги и музыка за 2013 и 2014 годы через торрент бесплатно. Скачивайте фильмы в хорошем качестве, игры для пк, xbox, playstation без регистрации. У нас вы найдете новые Зарубежные сериалы и Русские сериалы 2013, 2014, 2015 годов. Оставайтесь с нами, качайте любимые фильмы, игры, сериалы, книги и музыку.