img image001 image001 image001 image001 image001 image001 image001 image001 image001 image001 image001 image001 image001 image001 image001

Planets Sun Sun Sun
Статистика раздачи
Автор: Nickolas3434 | Размер: 2.14 ГБ | Добавлен: 08 июн 2016
Раздают: 781    Качают: 10
Скачать торрент
Скачать торрент
Описание торрента

СообщениеДобавлено: 08 июн 2016 

Зверополис
Zootopia
«Welcome to the urban jungle»


Страна: США
Жанр: мультфильм, боевик, комедия, криминал, приключения, семейный
Год выпуска: 2016
Продолжительность: 01:49:00
Перевод: Профессиональный (полное дублирование) [Лицензия iTunes]
Cубтитры: русские, украинские, английские (полные, SDH)
Оригинальная аудиодорожка: английский
Режиссер: Байрон Ховард / Byron Howard, Рич Мур / Rich Moore, Джаред Буш / Jared Bush
В ролях: Джиннифер Гудвин, Джейсон Бейтман, Идрис Эльба, Дженни Слейт, Нейт Торренс, Бонни Хант, Дон Лейк, Томми Чонг, Дж.К. Симмонс, Октавия Спенсер, Алан Тьюдик, Шакира
Описание:
Добро пожаловать в Зверополис - современный город, населенный самыми разными животными, от огромных слонов до крошечных мышек. Зверополис разделен на районы, полностью повторяющие естественную среду обитания разных жителей - здесь есть и элитный район Площадь Сахары и неприветливый Тундратаун. В этом городе появляется новый офицер полиции, жизнерадостная зайчиха Джуди Хоппс, которая с первых дней работы понимает, как сложно быть маленькой и пушистой среди больших и сильных полицейских. Джуди хватается за первую же возможность проявить себя, несмотря на то, что ее партнером будет болтливый хитрый лис Ник Уайлд. Вдвоем им предстоит раскрыть сложное дело, от которого будет зависеть судьба всех обитателей Зверополиса.

Релиз:
Автор рипа: stalkerok
Сэмпл
Качество видео: BDRip-AVC [Blu-ray Remux / 1080p]
Формат видео: MKV
Видео кодек: AVC
Аудио кодек: AC3
Видео: 1981 Кбит/сек, 1108*464 (2,40:1), в 23,976 (24000/1001) кадра/сек, AVC
Аудио #1: Russian, 384 Кбит/сек, 48,0 КГц, 6 каналов, AC-3
Аудио #2: English, 448 Кбит/сек, 48,0 КГц, 6 каналов, AC-3
Навигация по главам: есть

Общее
Уникальный идентификатор : 195920256670663913214118130253652658445 (0x9364DE7074222EA3B66CC1E70B69890D)
Полное имя : M:2RipsZootopiaZootopia.2016.BDRip-AVC.Dub.2.18Gb.stalkerok.new-team.mkv
Формат : Matroska
Версия формата : Version 4 / Version 2
Размер файла : 2,14 Гбайт
Продолжительность : 1 ч. 49 м.
Общий поток : 2805 Кбит/сек
Название фильма : Zootopia (2016) (New-Team) (Rip by stalkerok)
Дата кодирования : UTC 2016-06-07 15:07:05
Программа кодирования : mkvmerge v8.6.1 ('Flying') 64bit
Библиотека кодирования : libebml v1.3.3 + libmatroska v1.4.4
Видео
Идентификатор : 1
Формат : AVC
Формат/Информация : Advanced Video Codec
Профиль формата : High@L4.1
Параметр CABAC формата : Да
Параметр ReFrames формата : 14 кадров
Идентификатор кодека : V_MPEG4/ISO/AVC
Продолжительность : 1 ч. 48 м.
Битрейт : 1981 Кбит/сек
Ширина : 1108 пикселей
Высота : 464 пикселя
Соотношение сторон : 2,40:1
Режим частоты кадров : Постоянный
Частота кадров : 23,976 (24000/1001) кадра/сек
Цветовое пространство : YUV
Субдискретизация насыщенности : 4:2:0
Битовая глубина : 8 бит
Тип развёртки : Прогрессивная
Бит/(Пиксели*Кадры) : 0.161
Размер потока : 1,50 Гбайт (70%)
Заголовок : Zootopia (2016) (New-Team) (Rip by stalkerok)
Библиотека кодирования : x264 core 148 r2665kMod a01e339
Настройки программы : cabac=1 / ref=14 / deblock=1:-1:-1 / analyse=0x3:0x133 / me=umh / subme=10 / psy=1 / fade_compensate=0.00 / psy_rd=1.00:0.00 / mixed_ref=1 / me_range=32 / chroma_me=1 / trellis=2 / 8x8dct=1 / cqm=0 / deadzone=21,11 / fast_pskip=0 / chroma_qp_offset=-2 / threads=12 / lookahead_threads=3 / sliced_threads=0 / nr=0 / decimate=0 / interlaced=0 / bluray_compat=0 / constrained_intra=0 / fgo=0 / bframes=14 / b_pyramid=2 / b_adapt=2 / b_bias=0 / direct=3 / weightb=1 / open_gop=0 / weightp=2 / keyint=240 / keyint_min=23 / scenecut=40 / intra_refresh=0 / rc_lookahead=60 / rc=2pass / mbtree=0 / bitrate=1981 / ratetol=1.0 / qcomp=0.65 / qpmin=0 / qpmax=69 / qpstep=4 / cplxblur=20.0 / qblur=0.5 / vbv_maxrate=50000 / vbv_bufsize=62500 / nal_hrd=none / filler=0 / ip_ratio=1.40 / pb_ratio=1.30 / aq=1:0.80
Default : Да
Forced : Нет
Аудио #1
Идентификатор : 2
Формат : AC-3
Формат/Информация : Audio Coding 3
Расширение режима : CM (complete main)
Параметр Endianness формата : Big
Идентификатор кодека : A_AC3
Продолжительность : 1 ч. 49 м.
Вид битрейта : Постоянный
Битрейт : 384 Кбит/сек
Каналы : 6 каналов
Расположение каналов : Front: L C R, Side: L R, LFE
Частота : 48,0 КГц
Частота кадров : 31,250 кадров/сек (1536 spf)
Метод сжатия : С потерями
Размер потока : 299 Мбайт (14%)
Заголовок : DD5.1@384kbps
Язык : Russian
Default : Да
Forced : Нет
Аудио #2
Идентификатор : 3
Формат : AC-3
Формат/Информация : Audio Coding 3
Расширение режима : CM (complete main)
Параметр Endianness формата : Big
Идентификатор кодека : A_AC3
Продолжительность : 1 ч. 48 м.
Вид битрейта : Постоянный
Битрейт : 448 Кбит/сек
Каналы : 6 каналов
Расположение каналов : Front: L C R, Side: L R, LFE
Частота : 48,0 КГц
Частота кадров : 31,250 кадров/сек (1536 spf)
Метод сжатия : С потерями
Размер потока : 348 Мбайт (16%)
Язык : English
Default : Нет
Forced : Нет
Текст #1
Идентификатор : 4
Формат : UTF-8
Идентификатор кодека : S_TEXT/UTF8
Идентификатор кодека/Информация : UTF-8 Plain Text
Продолжительность : 1 ч. 38 м.
Битрейт : 121 бит/сек
Count of elements : 1729
Размер потока : 88,3 Кбайт (0%)
Язык : Russian
Default : Нет
Forced : Нет
Текст #2
Идентификатор : 5
Формат : UTF-8
Идентификатор кодека : S_TEXT/UTF8
Идентификатор кодека/Информация : UTF-8 Plain Text
Продолжительность : 1 ч. 35 м.
Битрейт : 122 бит/сек
Count of elements : 1373
Размер потока : 85,6 Кбайт (0%)
Язык : Ukrainian
Default : Нет
Forced : Нет
Текст #3
Идентификатор : 6
Формат : UTF-8
Идентификатор кодека : S_TEXT/UTF8
Идентификатор кодека/Информация : UTF-8 Plain Text
Продолжительность : 1 ч. 38 м.
Битрейт : 77 бит/сек
Count of elements : 2014
Размер потока : 56,4 Кбайт (0%)
Язык : English
Default : Нет
Forced : Нет
Текст #4
Идентификатор : 7
Формат : UTF-8
Идентификатор кодека : S_TEXT/UTF8
Идентификатор кодека/Информация : UTF-8 Plain Text
Продолжительность : 1 ч. 45 м.
Битрейт : 82 бит/сек
Count of elements : 2295
Размер потока : 64,3 Кбайт (0%)
Заголовок : SDH
Язык : English
Default : Нет
Forced : Нет
Меню
00:00:00.000 : en:Prologue
00:00:59.559 : en:Gideon Grey
00:05:50.100 : en:The Police Academy
00:10:05.563 : en:Welcome to Zootopia
00:14:31.537 : en:Meter Maid Duty
00:18:24.019 : en:Pawpsicles
00:26:03.353 : en:The Weasel Chase
00:30:57.439 : en:It's Called A Hustle
00:37:07.100 : en:The Naturalist Club
00:40:43.441 : en:Department Of 10
00:44:31.752 : en:Mr. Big
00:51:40.430 : en:Manchas Goes Savage
00:55:40.378 : en:The Gondola
01:00:48.269 : en:Help from Bellwether
01:03:37.855 : en:Cliffside Asylum
01:09:19.822 : en:We Cracked the Case
01:13:39.165 : en:Hopps Gives Up
01:17:07.372 : en:Hopps' Apology
01:21:52.366 : en:Doug's Laboratory
01:28:19.169 : en:The Natural History Museum
01:32:43.433 : en:Epilogue
01:36:12.141 : en:End Credits





   Похожие торренты   Торрент   Размер 
В этой теме нет новых непрочитанных сообщений. Зверополис / Zootopia (2016) BDRip-AVC от New-Team | iTunes

617 | 14

1.41 ГБ

В этой теме нет новых непрочитанных сообщений. Зверополис / Zootopia (2016) BDRip-AVC | iTunes

437 | 10

749.21 МБ

В этой теме нет новых непрочитанных сообщений. Зверополис / Zootopia (2016) BDRip от ExKinoRay | iTunes

3300 | 111

1.46 ГБ

В этой теме нет новых непрочитанных сообщений. Зверополис / Zootopia (2016) BDRip 1080p | 60 FPS | iTunes

1440 | 71

2.98 ГБ

В этой теме нет новых непрочитанных сообщений. Зверополис / Zootopia (2016) BDRip-AVC от HELLYWOOD | iTunes

666 | 41

2.13 ГБ

В этой теме нет новых непрочитанных сообщений. Зверополис / Zootopia (2016) BDRip 1080p HEVC | iTunes

684 | 17

1.99 ГБ

В этой теме нет новых непрочитанных сообщений. Зверополис / Zootopia (2016) BDRip 720p от ExKinoRay | iTunes

109 | 7

5.84 ГБ




Вы не можете начинать темы
Вы не можете отвечать на сообщения
Вы не можете редактировать свои сообщения
Вы не можете удалять свои сообщения
Вы не можете добавлять вложения

Перейти:  
Для Мосгорсуда, Роскомнадзора и рекламодателей: mosgorsud-torrent[собачка]yandex.ru
 Вход
ppkBB3cker v.2 © 2008-2014 @ PPK
[ Time : 0.027s | 15 Queries | GZIP : Off ]

Торрент трекер RUTOR.IN, Не можете зайти на rutor.org? Какой новый адрес рутор? Какое зеркало рутор? Не работает rutor.org и зеркала? Тогда наш торрент специально для вас. Rutor.in неофициальное зеркало rutor. В случае если у Вас заблокирован rutor или вдруг Вы не можете на него зайти, то Вы без труда сможете скачать бесплатно и без рекламы последние новинки кино, игр, сериалов и прочего у нас, на Rutor.in. Не нужно использовать прокси, чтобы зайти на рутор, достаточно воспользоваться нашим ресурсом. Все новые фильмы, игры, сериалы, книги и музыка за 2013 и 2014 годы через торрент бесплатно. Скачивайте фильмы в хорошем качестве, игры для пк, xbox, playstation без регистрации. У нас вы найдете новые Зарубежные сериалы и Русские сериалы 2013, 2014, 2015 годов. Оставайтесь с нами, качайте любимые фильмы, игры, сериалы, книги и музыку.