img image001 image001 image001 image001 image001 image001 image001 image001 image001 image001 image001 image001 image001 image001 image001

Planets Sun Sun Sun
Статистика раздачи
Автор: Nickolas3434 | Размер: 10.62 ГБ | Добавлен: 08 июн 2016
Раздают: 57    Качают: 9
Скачать торрент
Скачать торрент
Описание торрента

СообщениеДобавлено: 08 июн 2016 

Крякнутые каникулы
Quackerz



Год выпуска: 2015
Страна: Россия (Shout Kids Factory, Rome Animation & Film Studio, Asymmetric Studio)
Жанр: Мультфильм, Комедия, Приключения, Семейный
Продолжительность: 01:22:00
Перевод: Не требуется
Режиссер: Виктор Лакисов / Viktor Lakisov


озвучивали:

Ник - Никита Пресняков
Пенгли - Владимир Пресняков мл.
Марго - Эвелина Блёданс
Ариша - Полина Максимова
Помощник Марго - Александр Головин
Командир Кряк Дакмус - Всеволод Кузнецов
Толстяк Кианга, Продавец пряников - Борис Токарев
Помощник императора - Станислав Стрелков
Воспитательница - Елена Шульман
Друг Ника - Михаил Лукашов



Описание: Перелётные кряквы из России, решившие провести свой отдых на Гавайях, сбиваются с пути и приземляются на китайский остров, на котором живут утки-мандаринки. Между двумя стаями возникает много смешных и курьёзных ситуаций. Пока отцы дерутся и спорят, Ник, сын императора мандаринок и Ариша, дочь командира русских крякв, знакомятся и становятся друзьями. Дети должны объединить мандаринок и крякв и победить Ведьму Марго, которая хочет погубить солнце.
В производстве проекта, основной объём работы выполнила российская анимационная студия, расположенная в Москве, при этом были задействованы мощности студий в Канаде, Испании, Перу и Эстонии.
Рассчитанный на международный прокат мультфильм изначально был озвучен на английском языке.
Записью шумов и финальным сведением звука занималась американская студия Juniper Post, работавшая над фильмами «Престиж» (2006), «Малышка на миллион» (2004), «Фарго» (1995), «Мёрзлая земля» (2011).
[*]«Крякнутые Каникулы», стал первым российским проектом получившим финансовую поддержку со стороны КНР. Китайский холдинг Star Alliance Media инвестировал в производство значительную часть бюджета картины, а так же заявил о выходе мультфильма в широкий прокат в Китае на более чем пяти тысячах экранах в 2016 году.

Премьера: 30 марта 2016 (18 февраля 2016)
Бюджет: $12 000 000



За исходный BD 3D Remux спасибо и Dreamcatcher!



Качество: BDRip (by Ash61) [с BD 3D US]
Контейнер: MKV
Формат 3D: Half OverUnder / Вертикальная анаморфная стереопара
Порядок ракурсов: левый ракурс первый


Видео: AVC / 1920х1080p / 23,976 fps / 17.1 Mbps
Аудио:
#1 - Русский / AC3 / 48 KHz / 2 ch / 384 Kbps (Оригинал - iTunes)
#2 - Английский / AC3 / 48 KHz / 5.1 ch / 640 Kbps (Dubbing - BD 3D)
Субтитры: Отсутствуют
General
Unique ID : 252979833414469343798109576833448099503 (0xBE5224C63D6FA688869D57BD20613EAF)
Complete name : E:KryaknutieKanikuly(2016)3D-halfOU(Ash61)iTunes.mkv
Format : Matroska
Format version : Version 2
File size : 10.6 GiB
Duration : 1h 22mn
Overall bit rate : 18.5 Mbps
Movie name : Крякнутые каникулы / Quackerz (2015) в 3Д
Encoded date : UTC 2016-06-07 19:07:54
Writing application : mkvmerge v5.8.0 ('No Sleep / Pillow') built on Sep 2 2012 15:37:04
Writing library : libebml v1.2.3 + libmatroska v1.3.0
Video
ID : 1
Format : AVC
Format/Info : Advanced Video Codec
Format profile : High@L4.1
Format settings, CABAC : Yes
Format settings, ReFrames : 4 frames
Codec ID : V_MPEG4/ISO/AVC
Duration : 1h 22mn
Bit rate : 17.1 Mbps
Width : 1 920 pixels
Height : 1 080 pixels
Display aspect ratio : 16:9
Frame rate mode : Constant
Frame rate : 23.976 fps
Color space : YUV
Chroma subsampling : 4:2:0
Bit depth : 8 bits
Scan type : Progressive
Bits/(Pixel*Frame) : 0.345
Stream size : 9.82 GiB (92%)
Title : BDRip by Ash61
Writing library : x264 core 146 r2538 121396c
Encoding settings : cabac=1 / ref=4 / deblock=1:-1:-1 / analyse=0x3:0x113 / me=umh / subme=10 / psy=1 / psy_rd=1.00:0.15 / mixed_ref=1 / me_range=32 / chroma_me=1 / trellis=2 / 8x8dct=1 / cqm=0 / deadzone=21,11 / fast_pskip=1 / chroma_qp_offset=-3 / threads=12 / lookahead_threads=3 / sliced_threads=0 / nr=0 / decimate=1 / interlaced=0 / bluray_compat=0 / constrained_intra=0 / bframes=12 / b_pyramid=2 / b_adapt=2 / b_bias=0 / direct=3 / weightb=1 / open_gop=0 / weightp=2 / keyint=250 / keyint_min=23 / scenecut=40 / intra_refresh=0 / rc_lookahead=60 / rc=crf / mbtree=1 / crf=18.0 / qcomp=0.70 / qpmin=0 / qpmax=69 / qpstep=4 / vbv_maxrate=40000 / vbv_bufsize=30000 / crf_max=0.0 / nal_hrd=none / filler=0 / frame-packing=4 / ip_ratio=1.40 / aq=1:1.00
Language : Russian
Default : Yes
Forced : No
Audio #1
ID : 2
Format : AC-3
Format/Info : Audio Coding 3
Mode extension : CM (complete main)
Format settings, Endianness : Big
Codec ID : A_AC3
Duration : 1h 22mn
Bit rate mode : Constant
Bit rate : 384 Kbps
Channel(s) : 2 channels
Channel positions : Front: L R
Sampling rate : 48.0 KHz
Bit depth : 16 bits
Compression mode : Lossy
Stream size : 225 MiB (2%)
Title : Оригинал - iTunes
Language : Russian
Default : Yes
Forced : No
Audio #2
ID : 3
Format : AC-3
Format/Info : Audio Coding 3
Mode extension : CM (complete main)
Format settings, Endianness : Big
Codec ID : A_AC3
Duration : 1h 22mn
Bit rate mode : Constant
Bit rate : 640 Kbps
Channel(s) : 6 channels
Channel positions : Front: L C R, Side: L R, LFE
Sampling rate : 48.0 KHz
Bit depth : 16 bits
Compression mode : Lossy
Stream size : 375 MiB (3%)
Title : Dubbing - BD 3D
Language : English
Default : No
Forced : No
Menu
00:00:00.000 : :1
00:10:02.351 : :2
00:19:13.610 : :3
00:27:45.163 : :4
00:37:12.688 : :5
00:43:12.840 : :6
00:53:27.746 : :7
01:01:31.396 : :8
01:08:48.332 : :9
01:16:37.092 : :10
01:21:59.205 : :11





















   Похожие торренты   Торрент   Размер 
В этой теме нет новых непрочитанных сообщений. Прогулка / The Walk (2015) BDRip 1080p от Ash61 | 3D-Video | halfOU | iTunes

1906 | 175

7.09 ГБ

В этой теме нет новых непрочитанных сообщений. Миньоны / Minions (2015) BDRip 1080p от Ash61 | 3D-Video | halfOU | iTunes

2033 | 116

10.72 ГБ

В этой теме нет новых непрочитанных сообщений. Головоломка / Inside Out (2015) BDRip 1080p от Ash61 | 3D-Video | halfOU | iTunes

1168 | 135

7.75 ГБ

В этой теме нет новых непрочитанных сообщений. Марсианин / The Martian (2015) BDRip 1080p от Ash61 | 3D-Video | halfOU | iTunes

2262 | 117

13.51 ГБ

В этой теме нет новых непрочитанных сообщений. Пиксели / Pixels (2015) BDRip 1080p от Ash61 | 3D-Video | halfOU | iTunes

1023 | 97

7.38 ГБ

В этой теме нет новых непрочитанных сообщений. Человек-муравей / Ant-Man (2015) BDRip 1080p от Ash61 | 3D-Video | halfOU | iTunes

1765 | 135

15.8 ГБ

В этой теме нет новых непрочитанных сообщений. Ужастики / Goosebumps (2015) BDRip 1080p от Ash61 | 3D-Video | halfOU | iTunes

1032 | 81

7.34 ГБ




Вы не можете начинать темы
Вы не можете отвечать на сообщения
Вы не можете редактировать свои сообщения
Вы не можете удалять свои сообщения
Вы не можете добавлять вложения

Перейти:  
Для Мосгорсуда, Роскомнадзора и рекламодателей: mosgorsud-torrent[собачка]yandex.ru
 Вход
ppkBB3cker v.2 © 2008-2014 @ PPK
[ Time : 0.047s | 16 Queries | GZIP : Off ]

Торрент трекер RUTOR.IN, Не можете зайти на rutor.org? Какой новый адрес рутор? Какое зеркало рутор? Не работает rutor.org и зеркала? Тогда наш торрент специально для вас. Rutor.in неофициальное зеркало rutor. В случае если у Вас заблокирован rutor или вдруг Вы не можете на него зайти, то Вы без труда сможете скачать бесплатно и без рекламы последние новинки кино, игр, сериалов и прочего у нас, на Rutor.in. Не нужно использовать прокси, чтобы зайти на рутор, достаточно воспользоваться нашим ресурсом. Все новые фильмы, игры, сериалы, книги и музыка за 2013 и 2014 годы через торрент бесплатно. Скачивайте фильмы в хорошем качестве, игры для пк, xbox, playstation без регистрации. У нас вы найдете новые Зарубежные сериалы и Русские сериалы 2013, 2014, 2015 годов. Оставайтесь с нами, качайте любимые фильмы, игры, сериалы, книги и музыку.
cron