img image001 image001 image001 image001 image001 image001 image001 image001 image001 image001 image001 image001 image001 image001 image001

Planets Sun Sun Sun
Статистика раздачи
Автор: Nickolas3434 | Размер: 2.18 ГБ | Добавлен: 08 июн 2016
Раздают: 63    Качают: 1
Скачать торрент
Скачать торрент
Описание торрента

СообщениеДобавлено: 08 июн 2016 

Паранорман, или Как приручить зомби
ParaNorman
«Нормальные люди не становятся героями»


Страна: США
Жанр: мультфильм, фэнтези, комедия, приключения, семейный
Год выпуска: 2012
Продолжительность: 01:32:15
Перевод: Профессиональный (полное дублирование) [Лицензия]
Субтитры: русские (форсированные, полные Blu-ray, полные Нотабеноид), украинские (полные), английские (SDH),
Оригинальная аудиодорожка: Английский
Режиссер: Крис Батлер / Chris Butler, Сэм Фелл / Sam Fell
В ролях: Коди Смит-МакФи, Такер Албрицци, Анна Кендрик, Кейси Аффлек, Кристофер Минц-Плассе, Лесли Манн, Джефф Гарлин, Элейн Стритч, Бернард Хилл, Джоделль Ферланд, Темпестт Бледсо, Алекс Борштейн
Описание:
Норман, Паранорман. Единственная надежда полусонного городка в борьбе с полчищами нечисти. Его оружие - супер-мега-дар: умение общаться с призраками. Впрочем, мертвецы - не главная опасность, куда хуже - глупые взрослые с дробовиками наперевес.

Релиз:
Автор рипа: stalkerok
Сэмпл
Качество видео: BDRip 720p [Blu-ray Remux / 1080p]
Формат видео: MKV
Видео кодек: AVC
Аудио кодек: AC3
Видео: 2490 Кбит/сек, 1280*534 (2,40:1), в 23,976 (24000/1001) кадра/сек, AVC
Аудио №1: русский, 448 Кбит/сек, 48 КГц, 16 бит, 5.1, AC3
Аудио №2: английский, 448 Кбит/сек, 48 КГц, 16 бит, 5.1, AC3
Навигация по главам: есть

Общее
Уникальный идентификатор : 216091614063103826703681195098635959908 (0xA291BB247CE2AC41A7C4B39A9FCAFE64)
Полное имя : M:2RipsParaNormanParaNorman.2012.BDRip.720p.Dub.2.18Gb.stalkerok.new-team.mkv
Формат : Matroska
Версия формата : Version 4 / Version 2
Размер файла : 2,18 Гбайт
Продолжительность : 1 ч. 32 м.
Общий поток : 3388 Кбит/сек
Название фильма : ParaNorman (2012) (New-Team) (Rip by stalkerok)
Дата кодирования : UTC 2016-06-08 08:44:24
Программа кодирования : mkvmerge v8.6.1 ('Flying') 64bit
Библиотека кодирования : libebml v1.3.3 + libmatroska v1.4.4
Видео
Идентификатор : 1
Формат : AVC
Формат/Информация : Advanced Video Codec
Профиль формата : High@L4.1
Параметр CABAC формата : Да
Параметр ReFrames формата : 11 кадров
Идентификатор кодека : V_MPEG4/ISO/AVC
Продолжительность : 1 ч. 32 м.
Битрейт : 2490 Кбит/сек
Ширина : 1280 пикселей
Высота : 534 пикселя
Соотношение сторон : 2,40:1
Режим частоты кадров : Постоянный
Частота кадров : 23,976 (24000/1001) кадра/сек
Цветовое пространство : YUV
Субдискретизация насыщенности : 4:2:0
Битовая глубина : 8 бит
Тип развёртки : Прогрессивная
Бит/(Пиксели*Кадры) : 0.152
Размер потока : 1,60 Гбайт (73%)
Заголовок : ParaNorman (2012) (New-Team) (Rip by stalkerok)
Библиотека кодирования : x264 core 148 r2665kMod a01e339
Настройки программы : cabac=1 / ref=11 / deblock=1:-1:-1 / analyse=0x3:0x133 / me=umh / subme=10 / psy=1 / fade_compensate=0.00 / psy_rd=1.00:0.00 / mixed_ref=1 / me_range=32 / chroma_me=1 / trellis=2 / 8x8dct=1 / cqm=0 / deadzone=21,11 / fast_pskip=0 / chroma_qp_offset=-2 / threads=12 / lookahead_threads=3 / sliced_threads=0 / nr=0 / decimate=0 / interlaced=0 / bluray_compat=0 / constrained_intra=0 / fgo=0 / bframes=11 / b_pyramid=2 / b_adapt=2 / b_bias=0 / direct=3 / weightb=1 / open_gop=0 / weightp=2 / keyint=240 / keyint_min=23 / scenecut=40 / intra_refresh=0 / rc_lookahead=60 / rc=2pass / mbtree=0 / bitrate=2490 / ratetol=1.0 / qcomp=0.65 / qpmin=0 / qpmax=69 / qpstep=4 / cplxblur=20.0 / qblur=0.5 / vbv_maxrate=50000 / vbv_bufsize=62500 / nal_hrd=none / filler=0 / ip_ratio=1.40 / pb_ratio=1.30 / aq=1:0.80
Default : Да
Forced : Нет
Аудио #1
Идентификатор : 2
Формат : AC-3
Формат/Информация : Audio Coding 3
Расширение режима : CM (complete main)
Параметр Endianness формата : Big
Идентификатор кодека : A_AC3
Продолжительность : 1 ч. 32 м.
Вид битрейта : Постоянный
Битрейт : 448 Кбит/сек
Каналы : 6 каналов
Расположение каналов : Front: L C R, Side: L R, LFE
Частота : 48,0 КГц
Частота кадров : 31,250 кадров/сек (1536 spf)
Метод сжатия : С потерями
Размер потока : 295 Мбайт (13%)
Язык : Russian
Default : Да
Forced : Нет
Аудио #2
Идентификатор : 3
Формат : AC-3
Формат/Информация : Audio Coding 3
Расширение режима : CM (complete main)
Параметр Endianness формата : Big
Идентификатор кодека : A_AC3
Продолжительность : 1 ч. 32 м.
Вид битрейта : Постоянный
Битрейт : 448 Кбит/сек
Каналы : 6 каналов
Расположение каналов : Front: L C R, Side: L R, LFE
Частота : 48,0 КГц
Частота кадров : 31,250 кадров/сек (1536 spf)
Метод сжатия : С потерями
Размер потока : 296 Мбайт (13%)
Язык : English
Default : Нет
Forced : Нет
Текст #1
Идентификатор : 4
Формат : UTF-8
Идентификатор кодека : S_TEXT/UTF8
Идентификатор кодека/Информация : UTF-8 Plain Text
Продолжительность : 1 ч. 27 м.
Битрейт : 3 бит/сек
Count of elements : 48
Размер потока : 2,09 Кбайт (0%)
Заголовок : forced
Язык : Russian
Default : Да
Forced : Нет
Текст #2
Идентификатор : 5
Формат : UTF-8
Идентификатор кодека : S_TEXT/UTF8
Идентификатор кодека/Информация : UTF-8 Plain Text
Продолжительность : 1 ч. 31 м.
Битрейт : 84 бит/сек
Count of elements : 1069
Размер потока : 56,7 Кбайт (0%)
Заголовок : Blu-ray
Язык : Russian
Default : Нет
Forced : Нет
Текст #3
Идентификатор : 6
Формат : UTF-8
Идентификатор кодека : S_TEXT/UTF8
Идентификатор кодека/Информация : UTF-8 Plain Text
Продолжительность : 1 ч. 25 м.
Битрейт : 89 бит/сек
Count of elements : 1068
Размер потока : 55,9 Кбайт (0%)
Заголовок : Нотабеноид
Язык : Russian
Default : Нет
Forced : Нет
Текст #4
Идентификатор : 7
Формат : UTF-8
Идентификатор кодека : S_TEXT/UTF8
Идентификатор кодека/Информация : UTF-8 Plain Text
Продолжительность : 1 ч. 24 м.
Битрейт : 84 бит/сек
Count of elements : 913
Размер потока : 52,2 Кбайт (0%)
Язык : Ukrainian
Default : Нет
Forced : Нет
Текст #5
Идентификатор : 8
Формат : UTF-8
Идентификатор кодека : S_TEXT/UTF8
Идентификатор кодека/Информация : UTF-8 Plain Text
Продолжительность : 1 ч. 24 м.
Битрейт : 59 бит/сек
Count of elements : 1340
Размер потока : 36,7 Кбайт (0%)
Заголовок : SDH
Язык : English
Default : Нет
Forced : Нет
Меню
00:00:00.000 : en:00:00:00.000
00:04:55.420 : en:00:04:55.420
00:08:29.426 : en:00:08:29.426
00:11:38.865 : en:00:11:38.865
00:15:10.576 : en:00:15:10.576
00:18:10.673 : en:00:18:10.673
00:21:54.146 : en:00:21:54.146
00:26:25.501 : en:00:26:25.501
00:30:04.970 : en:00:30:04.970
00:33:56.117 : en:00:33:56.117
00:38:16.920 : en:00:38:16.920
00:43:06.542 : en:00:43:06.542
00:49:36.849 : en:00:49:36.849
00:52:46.789 : en:00:52:46.789
00:56:46.194 : en:00:56:46.194
01:01:15.964 : en:01:01:15.964
01:05:53.575 : en:01:05:53.575
01:11:51.057 : en:01:11:51.057
01:18:19.486 : en:01:18:19.486
01:25:07.394 : en:01:25:07.394





   Похожие торренты   Торрент   Размер 
В этой теме нет новых непрочитанных сообщений. Паранорман, или Как приручить зомби / ParaNorman (2012) BDRip-AVC от New-Team | Лицензия

67 | 1

1.46 ГБ

В этой теме нет новых непрочитанных сообщений. Паранорман, или Как приручить зомби / ParaNorman (2012) BDRip 720p | Лицензия

9 | 4

4.25 ГБ

В этой теме нет новых непрочитанных сообщений. Паранорман, или Как приручить зомби / ParaNorman (2012) BDRip 720p от HQ-ViDEO | Лицензия

99 | 3

2.49 ГБ

В этой теме нет новых непрочитанных сообщений. Паранорман, или Как приручить зомби / ParaNorman (2012) BDRip 1080p | Лицензия

3 | 2

6.9 ГБ

В этой теме нет новых непрочитанных сообщений. Паранорман, или Как приручить зомби / ParaNorman (2012) BDRip от HQCLUB | Лицензия

254 | 31

1.45 ГБ

В этой теме нет новых непрочитанных сообщений. Паранорман, или Как приручить зомби / ParaNorman (2012) BDRip-AVC от potroks | D | Лицензия

15 | 3

2.14 ГБ

В этой теме нет новых непрочитанных сообщений. Паранорман, или Как приручить зомби / ParaNorman (2012) BDRip 1080p от Youtracker | Лицензия

4 | 10

8.56 ГБ




Вы не можете начинать темы
Вы не можете отвечать на сообщения
Вы не можете редактировать свои сообщения
Вы не можете удалять свои сообщения
Вы не можете добавлять вложения

Перейти:  
Для Мосгорсуда, Роскомнадзора и рекламодателей: mosgorsud-torrent[собачка]yandex.ru
 Вход
ppkBB3cker v.2 © 2008-2014 @ PPK
[ Time : 0.034s | 18 Queries | GZIP : Off ]

cron