img image001 image001 image001 image001 image001 image001 image001 image001 image001 image001 image001 image001 image001 image001 image001

Planets Sun Sun Sun
Статистика раздачи
Автор: Nickolas3434 | Размер: 3.68 ГБ | Добавлен: 11 июн 2016
Раздают: 603    Качают: 22
Скачать торрент
Скачать торрент
Описание торрента

СообщениеДобавлено: 11 июн 2016 


Информация о фильме
Название: Кунг-фу Панда 3
Оригинальное название: Kung Fu Panda 3
Год выхода: 2016
Жанр: мультфильм, боевик, комедия, приключения, семейный
Режиссер: Алессандро Карлони, Дженнифер Ю
В ролях: Джек Блэк, Брайан Крэнстон, Дастин Хоффман, Анджелина Джоли, Дж.К. Симмонс, Джеки Чан, Сет Роген, Люси Лью, Дэвид Кросс, Кейт Хадсон
О фильме:
Воссоединившись со своим давно потерянным отцом, По отправляется в тайный рай для панд, где его ожидает встреча с множеством веселых сородичей. Однако вскоре злодей Кай начинает зачистку — он уничтожает кунг-фу мастеров по всему Китаю. По предстоит сделать невозможное — обучить боевому искусству деревню, полную его веселых, неуклюжих собратьев, и тем самым превратить их в отряд кунг-фу панд.

Страна: США, Китай
Студия: China Film Co., DreamWorks Animation, Oriental DreamWorks
Продолжительность: 01:35:12
Перевод: Дублированный | iTunes
Файл
Кодек: MPEG-4
Качество: BDRip 720p
Видео: 1280x544, 3661 Kbit/s, 23.976 fps
Звук:
Аудио #01: 48 kHz, AC3, 5.1, 384 Kbps | Дублированный, iTunes |AC3
Аудио #02: 48 kHz, DTS, 5.1, 1510 kbps | Оригинал |DTS
Субтитры: Русские, английские
Релиз от: Автор релиза:

General
Unique ID : 182056447848278545416015050428149532041 (0x88F6CBE403BF62678D2F0DDAEAB20589)
Complete name : F:VideoKung.Fu.Panda.3.2016.BDRip.720p.ExKinoRay.mkv
Format : Matroska
Format version : Version 4 / Version 2
File size : 3.68 GiB
Duration : 1h 34mn
Overall bit rate : 5 557 Kbps
Movie name : Kung.Fu.Panda.3.2016.BDRip.720p.ExKinoRay
Encoded date : UTC 2016-06-10 09:19:35
Writing application : mkvmerge v8.3.0 ('Over the Horizon') 64bit
Writing library : libebml v1.3.1 + libmatroska v1.4.2
Video
ID : 1
Format : AVC
Format/Info : Advanced Video Codec
Format profile : High@L4.1
Format settings, CABAC : Yes
Format settings, ReFrames : 12 frames
Codec ID : V_MPEG4/ISO/AVC
Duration : 1h 34mn
Bit rate : 3 661 Kbps
Width : 1 280 pixels
Height : 544 pixels
Display aspect ratio : 2.35:1
Frame rate mode : Constant
Frame rate : 23.976 (24000/1001) fps
Color space : YUV
Chroma subsampling : 4:2:0
Bit depth : 8 bits
Scan type : Progressive
Bits/(Pixel*Frame) : 0.219
Stream size : 2.43 GiB (66%)
Writing library : x264 core 142 r2431+42 c69a006 tMod [8-bit@all X86_64]
Encoding settings : cabac=1 / ref=12 / deblock=1:-1:-1 / analyse=0x3:0x133 / me=umh / subme=11 / psy=1 / fade_compensate=0.00 / psy_rd=0.40:0.00 / mixed_ref=1 / me_range=32 / chroma_me=1 / trellis=2 / 8x8dct=1 / cqm=0 / deadzone=21,11 / fast_pskip=0 / chroma_qp_offset=-2 / threads=6 / lookahead_threads=1 / sliced_threads=0 / nr=0 / decimate=0 / interlaced=0 / bluray_compat=0 / constrained_intra=0 / fgo=0 / bframes=8 / b_pyramid=2 / b_adapt=2 / b_bias=0 / direct=3 / weightb=1 / open_gop=0 / weightp=2 / keyint=240 / keyint_min=23 / scenecut=40 / intra_refresh=0 / rc_lookahead=60 / rc=crf / mbtree=0 / crf=16.5000 / qcomp=0.60 / qpmin=0:0:0 / qpmax=69:69:69 / qpstep=4 / vbv_maxrate=40000 / vbv_bufsize=30000 / crf_max=0.0 / nal_hrd=none / filler=0 / ip_ratio=1.40 / pb_ratio=1.30 / aq=1:0.60 / aq-sensitivity=10.00 / aq-factor=1.00:1.00:1.00 / aq2=0 / aq3=0
Language : English
Default : Yes
Forced : No
Audio #1
ID : 2
Format : AC-3
Format/Info : Audio Coding 3
Mode extension : CM (complete main)
Format settings, Endianness : Big
Codec ID : A_AC3
Duration : 1h 34mn
Bit rate mode : Constant
Bit rate : 384 Kbps
Channel(s) : 6 channels
Channel positions : Front: L C R, Side: L R, LFE
Sampling rate : 48.0 KHz
Frame rate : 31.250 fps (1536 spf)
Compression mode : Lossy
Stream size : 261 MiB (7%)
Title : DUB [iTunes]
Language : Russian
Default : Yes
Forced : No
Audio #2
ID : 3
Format : DTS
Format/Info : Digital Theater Systems
Format profile : ES Matrix / Core
Mode : 16
Format settings, Endianness : Big
Codec ID : A_DTS
Duration : 1h 34mn
Bit rate mode : Constant
Bit rate : 1 509 Kbps
Channel(s) : 7 channels / 6 channels
Channel positions : Front: L C R, Side: L R, Back: C, LFE / Front: L C R, Side: L R, LFE
Sampling rate : 48.0 KHz
Frame rate : 93.750 fps (512 spf)
Bit depth : 24 bits
Compression mode : Lossy
Stream size : 1.00 GiB (27%)
Title : ORIGINAL DTS-ES
Language : English
Default : No
Forced : No
Text #1
ID : 4
Format : UTF-8
Codec ID : S_TEXT/UTF8
Codec ID/Info : UTF-8 Plain Text
Duration : 1h 34mn
Bit rate : 76 bps
Count of elements : 1260
Stream size : 53.0 KiB (0%)
Language : Russian
Default : No
Forced : No
Text #2
ID : 5
Format : UTF-8
Codec ID : S_TEXT/UTF8
Codec ID/Info : UTF-8 Plain Text
Duration : 1h 29mn
Bit rate : 56 bps
Count of elements : 1470
Stream size : 36.8 KiB (0%)
Language : English
Default : No
Forced : No
Menu
00:00:00.000 : en:00:00:00.000
00:05:21.780 : en:00:05:21.780
00:08:10.240 : en:00:08:10.240
00:10:00.016 : en:00:10:00.016
00:12:26.037 : en:00:12:26.037
00:15:24.215 : en:00:15:24.215
00:19:08.230 : en:00:19:08.230
00:24:39.395 : en:00:24:39.395
00:30:17.607 : en:00:30:17.607
00:33:53.990 : en:00:33:53.990
00:36:18.259 : en:00:36:18.259
00:39:55.643 : en:00:39:55.643
00:43:32.652 : en:00:43:32.652
00:46:45.845 : en:00:46:45.845
00:51:41.181 : en:00:51:41.181
00:56:04.611 : en:00:56:04.611
00:59:48.168 : en:00:59:48.168
01:02:11.353 : en:01:02:11.353
01:05:26.965 : en:01:05:26.965
01:10:16.838 : en:01:10:16.838
01:14:06.901 : en:01:14:06.901
01:17:06.580 : en:01:17:06.580
01:20:34.788 : en:01:20:34.788
01:24:21.181 : en:01:24:21.181



   Похожие торренты   Торрент   Размер 
В этой теме нет новых непрочитанных сообщений. Кунг-фу Панда 3 / Kung Fu Panda 3 (2016) BDRip от ExKinoRay | iTunes

190 | 6

1.42 ГБ

В этой теме нет новых непрочитанных сообщений. Кунг-фу Панда 3 / Kung Fu Panda 3 (2016) BDRip-AVC от ExKinoRay | iTunes

427 | 20

2.41 ГБ

В этой теме нет новых непрочитанных сообщений. Кунг-фу Панда 3 / Kung Fu Panda 3 (2016) BDRip 1080p от ExKinoRay | iTunes

27 | 3

9.95 ГБ

В этой теме нет новых непрочитанных сообщений. Кунг-фу Панда 3 / Kung Fu Panda 3 (2016) WEB-DLRip-AVC от ExKinoRay | iTunes

840 | 61

1.46 ГБ

В этой теме нет новых непрочитанных сообщений. Кунг-фу Панда 3 / Kung Fu Panda 3 (2016) WEB-DLRip-AVC от ExKinoRay | iTunes

1568 | 91

2.09 ГБ

В этой теме нет новых непрочитанных сообщений. Кунг-фу Панда 3 / Kung Fu Panda 3 (2016) BDRemux 1080p от ExKinoRay | iTunes

88 | 14

21.72 ГБ

В этой теме нет новых непрочитанных сообщений. Кунг-фу Панда 3 / Kung Fu Panda 3 (2016) BDRip 720p от ExKinoRay | Лицензия

171 | 17

4.24 ГБ




Вы не можете начинать темы
Вы не можете отвечать на сообщения
Вы не можете редактировать свои сообщения
Вы не можете удалять свои сообщения
Вы не можете добавлять вложения

Перейти:  
Для Мосгорсуда, Роскомнадзора и рекламодателей: mosgorsud-torrent[собачка]yandex.ru
 Вход
ppkBB3cker v.2 © 2008-2014 @ PPK
[ Time : 0.057s | 15 Queries | GZIP : Off ]

Торрент трекер RUTOR.IN, Не можете зайти на rutor.org? Какой новый адрес рутор? Какое зеркало рутор? Не работает rutor.org и зеркала? Тогда наш торрент специально для вас. Rutor.in неофициальное зеркало rutor. В случае если у Вас заблокирован rutor или вдруг Вы не можете на него зайти, то Вы без труда сможете скачать бесплатно и без рекламы последние новинки кино, игр, сериалов и прочего у нас, на Rutor.in. Не нужно использовать прокси, чтобы зайти на рутор, достаточно воспользоваться нашим ресурсом. Все новые фильмы, игры, сериалы, книги и музыка за 2013 и 2014 годы через торрент бесплатно. Скачивайте фильмы в хорошем качестве, игры для пк, xbox, playstation без регистрации. У нас вы найдете новые Зарубежные сериалы и Русские сериалы 2013, 2014, 2015 годов. Оставайтесь с нами, качайте любимые фильмы, игры, сериалы, книги и музыку.
cron