img image001 image001 image001 image001 image001 image001 image001 image001 image001 image001 image001 image001 image001 image001 image001

Planets Sun Sun Sun
Статистика раздачи
Автор: Nickolas3434 | Размер: 7.03 ГБ | Добавлен: 18 июн 2016
Раздают: 57    Качают: 15
Скачать торрент
Скачать торрент
Описание торрента

СообщениеДобавлено: 18 июн 2016 


Информация о фильме
Название: Сватики
Год выхода: 2016
Жанр: Анимационный сериал, комедия
Режиссер: Левковский Владимир, Малкова Валерия
В ролях: Фёдор Добронравов, Татьяна Кравченко, Анатолий Васильев (II), Людмила Артемьева, София Стеценко, Даниил Белых, Инна Королёва, Руслана Писанка, Олеся Железняк, Александр Феклистов
О фильме: В каждой серии зрители увидят несколько смешных и интересных историй из популярного сериала, но уже с новыми шутками и комическими деталями, выполнение которых возможно лишь в анимационной версии. Мультипликационный сериал Сватик - юмористический анимационный цикл, созданный на основе сериала Сваты. Трижды Сваты были номинированы на премию телевизионного фестиваля, попали в тройку лидеров комедийных сериалов мира, которые собрали в течение года наибольшее число телезрителей на пяти континентах.
«Сватики» – юмористический анимационный цикл, созданный на основе сериала «Сваты», одного из самых популярных сериалов мира. Трижды «Сваты» были номинированы на премию телевизионного фестиваля в Монте-Карло, попав в тройку лидеров комедийных сериалов мира, собравших у экранов на протяжении года наибольшее число телезрителей на пяти континентах.
Герои сериала уже давно стали «членами» украинских семей, их выражения разошлись на цитаты, а очередные показы неизменно имеют высокие рейтинги. «Квартал 95» решил анимировать полюбившихся героев в своем новом мультипликационном проекте «Сватики». В каждой серии нового проекта зрители смогут увидеть несколько смешных и увлекательных историй из популярного сериала, но уже с новыми деталями и шутками, возможными только в анимационной версии.
Выпущено: Украина, "Студия Квартал-95"
Продолжительность: ~ 00:26:00 серия
Перевод: Не требуется
Файл
Кодек: х264
Качество: SATRip-AVC
Видео: MPEG-4 AVC, ~ 1900 Кбит/с, 720x416
Звук: АС3, 2 ch, 192 Кбит/с
Общее
Уникальный идентификатор : 181278138898739807773139980517883533765 (0x8860E64BF99C6D89B90FC1D3624059C5)
Полное имя : D:ВидеоSvatiki .2016.SATRip-AVC by Vovan366(ExKinoRay)Svatiki.(20.seriya).2016.SATRip-AVC by Vovan366(ExKinoRay).mkv
Формат : Matroska
Версия формата : Version 2
Размер файла : 359 Мбайт
Продолжительность : 24 м.
Общий поток : 2092 Кбит/сек
Дата кодирования : UTC 2016-06-13 10:12:48
Программа кодирования : mkvmerge v7.8.0 ('River Man') 32bit built on Apr 3 2015 12:11:22
Библиотека кодирования : libebml v1.3.1 + libmatroska v1.4.2
Видео
Идентификатор : 1
Формат : AVC
Формат/Информация : Advanced Video Codec
Профиль формата : High@L4.1
Параметр CABAC формата : Да
Параметр ReFrames формата : 10 кадров
Идентификатор кодека : V_MPEG4/ISO/AVC
Продолжительность : 24 м.
Битрейт : 1900 Кбит/сек
Ширина : 720 пикселей
Высота : 416 пикселей
Соотношение сторон : 1,731
Режим частоты кадров : Постоянный
Частота кадров : 25,000 кадров/сек
Цветовое пространство : YUV
Субдискретизация насыщенности : 4:2:0
Битовая глубина : 8 бит
Тип развёртки : Прогрессивная
Бит/(Пиксели*Кадры) : 0.254
Размер потока : 319 Мбайт (89%)
Библиотека кодирования : x264 core 146 r2538 121396c
Настройки программы : cabac=1 / ref=10 / deblock=1:-1:-1 / analyse=0x3:0x113 / me=umh / subme=10 / psy=1 / psy_rd=1.00:0.00 / mixed_ref=1 / me_range=32 / chroma_me=1 / trellis=2 / 8x8dct=1 / cqm=0 / deadzone=21,11 / fast_pskip=1 / chroma_qp_offset=-2 / threads=6 / lookahead_threads=1 / sliced_threads=0 / nr=0 / decimate=0 / interlaced=0 / bluray_compat=0 / constrained_intra=0 / bframes=10 / b_pyramid=2 / b_adapt=2 / b_bias=0 / direct=1 / weightb=1 / open_gop=0 / weightp=2 / keyint=250 / keyint_min=25 / scenecut=40 / intra_refresh=0 / rc=2pass / mbtree=0 / bitrate=1900 / ratetol=1.0 / qcomp=0.60 / qpmin=0 / qpmax=69 / qpstep=4 / cplxblur=20.0 / qblur=0.5 / ip_ratio=1.40 / pb_ratio=1.30 / aq=1:1.00
Default : Да
Forced : Нет
Аудио
Идентификатор : 2
Формат : AC-3
Формат/Информация : Audio Coding 3
Расширение режима : CM (complete main)
Параметр Endianness формата : Big
Идентификатор кодека : A_AC3
Продолжительность : 24 м.
Вид битрейта : Постоянный
Битрейт : 192 Кбит/сек
Каналы : 2 канала
Расположение каналов : Front: L R
Частота : 48,0 КГц
Частота кадров : 31,250 кадров/сек (1536 spf)
Метод сжатия : С потерями
Размер потока : 33,0 Мбайт (9%)
Default : Да
Forced : Нет




Релиз от:
Rip by: Vovan366



   Похожие торренты   Торрент   Размер 
В этой теме нет новых непрочитанных сообщений. Сватики [01х01 из 20] (2016) SATRip от Files-x

66 | 4

1.05 ГБ

В этой теме нет новых непрочитанных сообщений. Сватики [01х01 из 20] (2016) SATRip от Files-x

28 | 5

2.08 ГБ

В этой теме нет новых непрочитанных сообщений. Сватики [01х01-16 из 20] (2016) DVB от Files-x

12 | 7

16.37 ГБ

В этой теме нет новых непрочитанных сообщений. Сватики [01х01-16 из 20] (2016) DVB от Files-x

14 | 6

20.39 ГБ

В этой теме нет новых непрочитанных сообщений. Без правил [01-04 из 04] (2016) SATRip-AVC от ExKinoRay

120 | 9

2.05 ГБ

В этой теме нет новых непрочитанных сообщений. Вижу-Знаю [01-03 из 24] (2016) SATRip-AVC от ExKinoRay

5 | 1

3.31 ГБ

В этой теме нет новых непрочитанных сообщений. Вижу-Знаю [01-18 из 24] (2016) SATRip-AVC от ExKinoRay

34 | 24

9.91 ГБ




Вы не можете начинать темы
Вы не можете отвечать на сообщения
Вы не можете редактировать свои сообщения
Вы не можете удалять свои сообщения
Вы не можете добавлять вложения

Перейти:  
Для Мосгорсуда, Роскомнадзора и рекламодателей: mosgorsud-torrent[собачка]yandex.ru
 Вход
ppkBB3cker v.2 © 2008-2014 @ PPK
[ Time : 0.106s | 14 Queries | GZIP : Off ]

Торрент трекер RUTOR.IN, Не можете зайти на rutor.org? Какой новый адрес рутор? Какое зеркало рутор? Не работает rutor.org и зеркала? Тогда наш торрент специально для вас. Rutor.in неофициальное зеркало rutor. В случае если у Вас заблокирован rutor или вдруг Вы не можете на него зайти, то Вы без труда сможете скачать бесплатно и без рекламы последние новинки кино, игр, сериалов и прочего у нас, на Rutor.in. Не нужно использовать прокси, чтобы зайти на рутор, достаточно воспользоваться нашим ресурсом. Все новые фильмы, игры, сериалы, книги и музыка за 2013 и 2014 годы через торрент бесплатно. Скачивайте фильмы в хорошем качестве, игры для пк, xbox, playstation без регистрации. У нас вы найдете новые Зарубежные сериалы и Русские сериалы 2013, 2014, 2015 годов. Оставайтесь с нами, качайте любимые фильмы, игры, сериалы, книги и музыку.