img image001 image001 image001 image001 image001 image001 image001 image001 image001 image001 image001 image001 image001 image001 image001

Planets Sun Sun Sun
Статистика раздачи
Автор: Nickolas3434 | Размер: 1.37 ГБ | Добавлен: 17 июн 2016
Раздают: 5783    Качают: 419
Скачать торрент
Скачать торрент
Описание торрента

СообщениеДобавлено: 17 июн 2016 


Информация о фильме
Название: Сезон охоты 4: Страшно глупо
Оригинальное название: Open Season: Scared Silly
Год выхода: 2015
Жанр: Мультфильм, комедия, приключения, семейный
Режиссер: Дэвид Фейсс
В ролях: Уилльям Таунсенд, Мелисса Штурм, Тревор Дивэлл, Гари Чок, Брайан Драммонд, Кэтлин Барр, Шеннон Чан-Кент, Мишель Мурдокка, Питер Келамис, Мэттью В. Тейлор
О фильме:
Олень Эллиот, такса Сосиска и их друзья сговариваются отучить медведя Буга бояться всего на свете. Услышав у ночного костра байку про Свирепого Волка-Оборотня, могучий гризли совсем потерял покой и стал вести себя как трусливая мышь. Из-за этого у компании срываются классные каникулы. Чтобы «спугнуть» напрасные медвежьи страхи, Эллиот и Сосиска снаряжают экспедицию в Тёмный Лес, открывая на его самого загадочного обитателя… свой сезон охоты. Но все прошлые приключения меркнут по сравнению с тем, что ждёт лесную команду в этот раз. Головокружительные погони, уморительные шутки и крутые сюжетные повороты — в первой мульт-комедии лета.

Страна: США
Студия: Sony Pictures Animation
Продолжительность: 01:24:45
Перевод: Профессиональный (полное дублирование)[iTunes]
Файл
Качество: HDRip
Кодек: XviD
Видео: 720x400 (16:9), 23,976 fps, Xvid ~1916 kbps avg, 0.277 bit/pixel
Звук: 48 kHz, AC3, 6 ch, ~384.00 kbps avg | русский | Профессиональный (полное дублирование)[iTunes]
Субтитры: отсутствуют
Семпл
Общее
Полное имя : Ce30H.0x0ty.ba1ki.i3.LeCa.2015.D.HDRip.14OOMB.avi
Формат : AVI
Формат/Информация : Audio Video Interleave
Размер файла : 1,37 Гбайт
Продолжительность : 1 ч. 24 м.
Общий поток : 2309 Кбит/сек
Название фильма : Ce30H.0x0ty.ba1ki.i3.LeCa.2015.D.HDRip.14OOMB
Программа кодирования : VirtualDubMod 1.5.10.2 (build 2540/release)
Формат оригинала/Имя : Movie
Видео
Идентификатор : 0
Формат : MPEG-4 Visual
Профиль формата : Advanced Simple@L5
Параметр BVOP формата : 2
Параметр QPel формата : Нет
Параметр GMC формата : Без точки перехода
Параметр матрицы формата : Default (MPEG)
Идентификатор кодека : XVID
Идентификатор кодека/Подсказка : XviD
Продолжительность : 1 ч. 24 м.
Битрейт : 1916 Кбит/сек
Ширина : 720 пикселей
Высота : 400 пикселей
Соотношение сторон : 16:9
Частота кадров : 23,976 (24000/1001) кадра/сек
Цветовое пространство : YUV
Субдискретизация насыщенности : 4:2:0
Битовая глубина : 8 бит
Тип развёртки : Прогрессивная
Метод сжатия : С потерями
Бит/(Пиксели*Кадры) : 0.277
Размер потока : 1,13 Гбайт (83%)
Библиотека кодирования : XviD 1.2.1 (UTC 2008-12-04)
Аудио
Идентификатор : 1
Формат : AC-3
Формат/Информация : Audio Coding 3
Расширение режима : CM (complete main)
Параметр Endianness формата : Big
Идентификатор кодека : 2000
Продолжительность : 1 ч. 24 м.
Вид битрейта : Постоянный
Битрейт : 384 Кбит/сек
Каналы : 6 каналов
Расположение каналов : Front: L C R, Side: L R, LFE
Частота : 48,0 КГц
Частота кадров : 31,250 кадров/сек (1536 spf)
Метод сжатия : С потерями
Размер потока : 233 Мбайт (17%)
Выравнивание : Разделение по промежуткам
Продолжительность промежутка : 42 мс. (1,00 видеокадр)
Время предзагрузки промежутка : 500 мс.



   Похожие торренты   Торрент   Размер 
В этой теме нет новых непрочитанных сообщений. Сезон охоты 4: Страшно глупо / Open Season: Scared Silly (2015) HDRip от MegaPeer | iTunes

121 | 11

746.5 МБ

В этой теме нет новых непрочитанных сообщений. Сезон охоты 4: Страшно глупо / Open Season: Scared Silly (2015) BDRip-AVC | iTunes

109 | 4

1.62 ГБ

В этой теме нет новых непрочитанных сообщений. Сезон охоты: Байки из леса / Сезон охоты 4: Страшно глупо / Open Season: Scared Silly (2015) BDRip от HQCLUB | D | iTunes

17 | 0

1.45 ГБ

В этой теме нет новых непрочитанных сообщений. Сезон охоты 4: Страшно глупо / Open Season: Scared Silly (2015) HDRip | L

6166 | 280

1.37 ГБ

В этой теме нет новых непрочитанных сообщений. Сезон охоты 4: Страшно глупо / Open Season: Scared Silly (2015) BDRip от ExKinoRay | iTunes

332 | 10

1.42 ГБ

В этой теме нет новых непрочитанных сообщений. Сезон охоты 4: Страшно глупо / Open Season: Scared Silly (2015) BDRemux 1080p от ExKinoRay | iTunes

29 | 5

15.33 ГБ

В этой теме нет новых непрочитанных сообщений. Сезон охоты 4: Страшно глупо / Open Season: Scared Silly (2015) BDRip 1080p от ExKinoRay | iTunes

192 | 8

5.11 ГБ




Вы не можете начинать темы
Вы не можете отвечать на сообщения
Вы не можете редактировать свои сообщения
Вы не можете удалять свои сообщения
Вы не можете добавлять вложения

Перейти:  
Для Мосгорсуда, Роскомнадзора и рекламодателей: mosgorsud-torrent[собачка]yandex.ru
 Вход
ppkBB3cker v.2 © 2008-2014 @ PPK
[ Time : 0.037s | 15 Queries | GZIP : Off ]

cron