img image001 image001 image001 image001 image001 image001 image001 image001 image001 image001 image001 image001 image001 image001 image001

Planets Sun Sun Sun
Статистика раздачи
Автор: Nickolas3434 | Размер: 15.33 ГБ | Добавлен: 17 июн 2016
Раздают: 83    Качают: 12
Скачать торрент
Скачать торрент
Описание торрента

СообщениеДобавлено: 17 июн 2016 


Информация о фильме
Название: Сезон охоты 4: Страшно глупо
Оригинальное название: Open Season: Scared Silly
Год выхода: 2015
Жанр: Мультфильм, приключения, детский, семейный, полнометражный
Режиссер: Дэвид Фейсс
В ролях: Кэтлин Барр, Гари Чок, Тревор Дивэлл, Донни Джеймс Лукас, Мелисса Штурм, Мэттью В. Тейлор
О фильме:
Элиот, Буг и вся их лесная братва попадают в совершенно новое и очень-очень смешное приключение.

Страна: США
Студия: Sony Pictures Animation
Продолжительность: 01:24:45
Перевод: Дублированный | iTunes
Файл
Кодек: MPEG-4
Качество: BDRemux 1080p
Видео: 1920x1080, 23.3 Mbit/s, 23.976 fps
Звук:
Аудио #01: 48 kHz, AC3, 5.1, 384 Kbps | Дублированный, iTunes |AC3
Аудио #02: 48 kHz, DTS-HD MA, 5.1, 2171 kbps | Оригинал |DTS-HD MA
Субтитры: Английские
Релиз от: Автор релиза:

General
Unique ID : 215662995193563511396990898864032300002 (0xA23F2E99C6F08752B7E6F1695A0BBBE2)
Complete name : F:VideoOpen.Season.Scared.Silly.2015.BDREMUX.1080p.ExKinoRay.mkv
Format : Matroska
Format version : Version 4 / Version 2
File size : 15.3 GiB
Duration : 1h 24mn
Overall bit rate mode : Variable
Overall bit rate : 25.9 Mbps
Movie name : Open.Season.Scared.Silly.2015.BDREMUX.1080p.ExKinoRay
Encoded date : UTC 2016-06-14 11:27:46
Writing application : mkvmerge v8.3.0 ('Over the Horizon') 64bit
Writing library : libebml v1.3.1 + libmatroska v1.4.2
Video
ID : 1
Format : AVC
Format/Info : Advanced Video Codec
Format profile : High@L4.1
Format settings, CABAC : Yes
Format settings, ReFrames : 2 frames
Codec ID : V_MPEG4/ISO/AVC
Duration : 1h 24mn
Bit rate mode : Variable
Bit rate : 23.3 Mbps
Width : 1 920 pixels
Height : 1 080 pixels
Display aspect ratio : 16:9
Frame rate mode : Constant
Frame rate : 23.976 (24000/1001) fps
Color space : YUV
Chroma subsampling : 4:2:0
Bit depth : 8 bits
Scan type : Progressive
Bits/(Pixel*Frame) : 0.469
Stream size : 13.8 GiB (90%)
Title : Open.Season.Scared.Silly.2015.BDREMUX.1080p.ExKinoRay.***селезень***
Language : English
Default : No
Forced : No
Audio #1
ID : 2
Format : AC-3
Format/Info : Audio Coding 3
Mode extension : CM (complete main)
Format settings, Endianness : Big
Codec ID : A_AC3
Duration : 1h 24mn
Bit rate mode : Constant
Bit rate : 384 Kbps
Channel(s) : 6 channels
Channel positions : Front: L C R, Side: L R, LFE
Sampling rate : 48.0 KHz
Frame rate : 31.250 fps (1536 spf)
Compression mode : Lossy
Stream size : 233 MiB (1%)
Title : DUB [iTunes]
Language : Russian
Default : Yes
Forced : No
Audio #2
ID : 3
Format : DTS
Format/Info : Digital Theater Systems
Format profile : MA / Core
Mode : 16
Format settings, Endianness : Big
Codec ID : A_DTS
Duration : 1h 24mn
Bit rate mode : Variable / Constant
Bit rate : 2 171 Kbps / 1 509 Kbps
Channel(s) : 6 channels
Channel positions : Front: L C R, Side: L R, LFE
Sampling rate : 48.0 KHz
Frame rate : 93.750 fps (512 spf)
Bit depth : 16 bits
Compression mode : Lossless / Lossy
Stream size : 1.29 GiB (8%)
Title : Original
Language : English
Default : No
Forced : No
Text #1
ID : 4
Format : UTF-8
Codec ID : S_TEXT/UTF8
Codec ID/Info : UTF-8 Plain Text
Duration : 1h 19mn
Bit rate : 83 bps
Count of elements : 1142
Stream size : 48.8 KiB (0%)
Language : English
Default : No
Forced : No
Text #2
ID : 5
Format : UTF-8
Codec ID : S_TEXT/UTF8
Codec ID/Info : UTF-8 Plain Text
Duration : 1h 19mn
Bit rate : 93 bps
Count of elements : 1468
Stream size : 54.8 KiB (0%)
Title : SDH
Language : English
Default : No
Forced : No
Menu
00:00:00.000 : en:Chapter 01
00:05:02.635 : en:Chapter 02
00:10:01.309 : en:Chapter 03
00:13:58.671 : en:Chapter 04
00:18:57.469 : en:Chapter 05
00:25:54.886 : en:Chapter 06
00:33:20.915 : en:Chapter 07
00:39:17.229 : en:Chapter 08
00:42:02.102 : en:Chapter 09
00:47:39.356 : en:Chapter 10
00:54:00.528 : en:Chapter 11
00:58:00.643 : en:Chapter 12
01:03:17.460 : en:Chapter 13
01:08:40.366 : en:Chapter 14
01:14:53.655 : en:Chapter 15
01:18:20.904 : en:Chapter 16



   Похожие торренты   Торрент   Размер 
В этой теме нет новых непрочитанных сообщений. Сезон охоты 4: Страшно глупо / Open Season: Scared Silly (2015) BDRip 1080p от ExKinoRay | iTunes

296 | 14

5.11 ГБ

В этой теме нет новых непрочитанных сообщений. Сезон охоты 4: Страшно глупо / Open Season: Scared Silly (2015) BDRip от ExKinoRay | iTunes

516 | 15

1.42 ГБ

В этой теме нет новых непрочитанных сообщений. Сезон охоты 4: Страшно глупо / Open Season: Scared Silly (2015) BDRip 1080p от ExKinoRay | D | Line

1624 | 70

6.75 ГБ

В этой теме нет новых непрочитанных сообщений. Сезон охоты 4: Страшно глупо / Open Season: Scared Silly (2015) HDRip | iTunes

9126 | 567

1.37 ГБ

В этой теме нет новых непрочитанных сообщений. Сезон охоты 4: Страшно глупо / Open Season: Scared Silly (2015) BDRip-AVC | iTunes

205 | 5

1.62 ГБ

В этой теме нет новых непрочитанных сообщений. Сезон охоты 4: Страшно глупо / Open Season: Scared Silly (2015) HDRip от MegaPeer | iTunes

196 | 15

746.5 МБ

В этой теме нет новых непрочитанных сообщений. Сезон охоты 4: Страшно глупо / Open Season: Scared Silly (2015) BDRip 720p от ExKinoRay | D | Line

2265 | 95

4.71 ГБ




Вы не можете начинать темы
Вы не можете отвечать на сообщения
Вы не можете редактировать свои сообщения
Вы не можете удалять свои сообщения
Вы не можете добавлять вложения

Перейти:  
Для Мосгорсуда, Роскомнадзора и рекламодателей: mosgorsud-torrent[собачка]yandex.ru
 Вход
ppkBB3cker v.2 © 2008-2014 @ PPK
[ Time : 0.552s | 14 Queries | GZIP : Off ]

Торрент трекер RUTOR.IN, Не можете зайти на rutor.org? Какой новый адрес рутор? Какое зеркало рутор? Не работает rutor.org и зеркала? Тогда наш торрент специально для вас. Rutor.in неофициальное зеркало rutor. В случае если у Вас заблокирован rutor или вдруг Вы не можете на него зайти, то Вы без труда сможете скачать бесплатно и без рекламы последние новинки кино, игр, сериалов и прочего у нас, на Rutor.in. Не нужно использовать прокси, чтобы зайти на рутор, достаточно воспользоваться нашим ресурсом. Все новые фильмы, игры, сериалы, книги и музыка за 2013 и 2014 годы через торрент бесплатно. Скачивайте фильмы в хорошем качестве, игры для пк, xbox, playstation без регистрации. У нас вы найдете новые Зарубежные сериалы и Русские сериалы 2013, 2014, 2015 годов. Оставайтесь с нами, качайте любимые фильмы, игры, сериалы, книги и музыку.