img image001 image001 image001 image001 image001 image001 image001 image001 image001 image001 image001 image001 image001 image001 image001

Planets Sun Sun Sun
Статистика раздачи
Автор: Nickolas3434 | Размер: 1.46 ГБ | Добавлен: 02 июл 2016
Раздают: 681    Качают: 19
Скачать торрент
Скачать торрент
Описание торрента

СообщениеДобавлено: 02 июл 2016 


Дофус – Книга 1: Джулит / Dofus - Livre 1: Julith
Страна: Франция
Производство: Ankama Animations, CNC, France 3 Cinema, Pictanovo Nord-Pas-de-Calais
Год выпуска: 2015
Жанр: мультфильм, фэнтези, комедия, приключения
Продолжительность: 01:47:53
Режиссеры: Жан-Жак Дени, Энтони Ру
Автор сценария: Энтони Ру
В ролях: Сован Деланоэ, Жан-Клод Донда, Эммануэль Гради, Летиция Лефевр, Франсуа Сьенер
Описание: В антикварном магазине бывалого путешественника Керуба Крепина — как в пещере сокровищ. Здесь можно найти немало древних вещей, в числе которых оружие, амулеты, артефакты, некоторые из которых — настоящая драгоценность, а некоторые даже наполнены волшебной силой. Десятилетний приёмный сын Керубима мальчик по имени Жорис абсолютно счастлив, однако спокойная жизнь прекращается после того, как Жорис задумал отыскать своего кумира, суперзвезду Гоббоула: именно в этот момент в городе появляется коварная и мстительная ведьма Джулит…

Перевод: Любительский (одноголосый, закадровый)
Субтитры: нет

Качество: НDRip
Формат: АVI
Видео кодек: XviD
Аудио кодек: АС3
Видео: 720x384 (1.85:1), 25.000 fps, XviD ~1 627 kbps avg
Аудио: 48.0 kHz, AC3 Dolby Digital, 2/0 (L,R) ch, ~192.00 kbps
Дата премьеры (мир): 7 ноября 2015

General
Format : AVI
Format/Info : Audio Video Interleave
Overall bit rate : 1 830 Kbps
Writing application : VirtualDubMod 1.5.10.2 (build 2540/release)
Writing library : VirtualDubMod build 2540/release
Video
ID : 0
Format : MPEG-4 Visual
Format profile : Advanced Simple@L5
Format settings, BVOP : 2
Format settings, QPel : No
Format settings, GMC : No warppoints
Format settings, Matrix : Default (MPEG)
Codec ID : XVID
Codec ID/Hint : XviD
Bit rate : 1 627 Kbps
Width : 720 pixels
Height : 384 pixels
Display aspect ratio : 1.85:1
Frame rate : 25.000 fps
Color space : YUV
Chroma subsampling : 4:2:0
Bit depth : 8 bits
Scan type : Progressive
Compression mode : Lossy
Bits/(Pixel*Frame) : 0.235
Stream size : 10.6 MiB (89%)
Writing library : XviD 1.2.1 (UTC 2008-12-04)
Audio
ID : 1
Format : AC-3
Format/Info : Audio Coding 3
Mode extension : CM (complete main)
Format settings, Endianness : Big
Codec ID : 2000
Bit rate mode : Constant
Bit rate : 192 Kbps
Channel(s) : 2 channels
Channel positions : Front: L R
Sampling rate : 48.0 KHz
Compression mode : Lossy
Stream size : 1.25 MiB (10%)
Alignment : Split accross interleaves
Interleave, duration : 40 ms (1.01 video frame)
Interleave, preload duration : 500 ms




   Похожие торренты   Торрент   Размер 
В этой теме нет новых непрочитанных сообщений. Дофус – Книга 1: Джулит / Dofus - Livre 1: Julith (2015) WEB-DL 1080p от ExKinoRay | VO

106 | 20

4.3 ГБ

В этой теме нет новых непрочитанных сообщений. Дофус: Сокровища Керуба / Dofus aux trésors de Kérubim [S01] (2013) HDTVRip | L

49 | 25

5.63 ГБ

В этой теме нет новых непрочитанных сообщений. Дофус: Сокровища Керуба / Dofus aux trésors de Kérubim [S01] (2013) HDTVRip 720р | L

71 | 46

7.35 ГБ

В этой теме нет новых непрочитанных сообщений. Хвала тебе, Мария / Книга Мари / Je vous salue, Marie / Le livre de Marie (1984) BDRip 720p

37 | 11

6.05 ГБ

В этой теме нет новых непрочитанных сообщений. Таймлесс. Рубиновая книга / Rubinrot (2013) НDRip от Generalfilm | КПК | D | лицензия

6 | 2

416.05 МБ

В этой теме нет новых непрочитанных сообщений. Вакфу — В поисках шести дофусов / Wakfu OVA — La Quête des Six Dofus Eliatropes (2014) DVDRip от alexeyfresh

350 | 14

1.45 ГБ

В этой теме нет новых непрочитанных сообщений. Серия книг - Книга-загадка, книга-бестселлер (196 книг) (2005-2015) FB2, RTF

547 | 315

608.28 МБ




Вы не можете начинать темы
Вы не можете отвечать на сообщения
Вы не можете редактировать свои сообщения
Вы не можете удалять свои сообщения
Вы не можете добавлять вложения

Перейти:  
Для Мосгорсуда, Роскомнадзора и рекламодателей: mosgorsud-torrent[собачка]yandex.ru
 Вход
ppkBB3cker v.2 © 2008-2014 @ PPK
[ Time : 0.061s | 14 Queries | GZIP : Off ]

Торрент трекер RUTOR.IN, Не можете зайти на rutor.org? Какой новый адрес рутор? Какое зеркало рутор? Не работает rutor.org и зеркала? Тогда наш торрент специально для вас. Rutor.in неофициальное зеркало rutor. В случае если у Вас заблокирован rutor или вдруг Вы не можете на него зайти, то Вы без труда сможете скачать бесплатно и без рекламы последние новинки кино, игр, сериалов и прочего у нас, на Rutor.in. Не нужно использовать прокси, чтобы зайти на рутор, достаточно воспользоваться нашим ресурсом. Все новые фильмы, игры, сериалы, книги и музыка за 2013 и 2014 годы через торрент бесплатно. Скачивайте фильмы в хорошем качестве, игры для пк, xbox, playstation без регистрации. У нас вы найдете новые Зарубежные сериалы и Русские сериалы 2013, 2014, 2015 годов. Оставайтесь с нами, качайте любимые фильмы, игры, сериалы, книги и музыку.