img image001 image001 image001 image001 image001 image001 image001 image001 image001 image001 image001 image001 image001 image001 image001

Planets Sun Sun Sun
Статистика раздачи
Автор: Nickolas3434 | Размер: 9.43 ГБ | Добавлен: 02 июл 2016
Раздают: 240    Качают: 22
Скачать торрент
Скачать торрент
Описание торрента

СообщениеДобавлено: 02 июл 2016 







Кунг-фу Панда 3
Kung Fu Panda 3



Год выпуска: 2016
Страна: США, Китай (20th Century Fox, DreamWorks Animation)
Жанр: Мультфильм, Боевик, Комедия, Приключения, Семейный
Продолжительность: 01:34:55
Перевод: Профессиональный дублированный - iTunes
Режиссеры: Алессандро Карлони, Дженнифер Ю / Alessandro Carloni, Jennifer Yuh Nelson


исполняли (дублировали):

Po - (Михаил Галустян)
Li - Брайан Крэнстон (Александр Новиков)
Shifu - Дастин Хоффман (Александр Хотченков)
Tigress - Анджелина Джоли (Ольга Зубкова)
Kai - Дж.К. Симмонс (Сергей Чихачев)
Monkey - Джеки Чан (Диомид Виноградов)
Mantis - Сет Роген (Денис Беспалый)
Viper - Люси Лью (Марианна Шульц)
Crane - Дэвид Кросс (Александр Гаврилин)
Mei Mei - Кейт Хадсон (Анастасия Лапина)
Yoo - Пакс Джоли-Питт
Ku Ku - Нокс Джоли-Питт
Meng Meng - Захара Джоли-Питт
Shuai Shuai - Шайло Джоли-Питт
Master Croc - Жан-Клод Ван Дамм



Описание: Воссоединившись со своим давно потерянным отцом, По отправляется в тайный рай для панд, где его ожидает встреча с множеством веселых сородичей. Однако вскоре злодей Кай начинает зачистку — он уничтожает кунг-фу мастеров по всему Китаю.
По предстоит сделать невозможное — обучить боевому искусству деревню, полную его веселых, неуклюжих собратьев, и тем самым превратить их в отряд кунг-фу панд.

Для Дж. К. Симмонса, голосом которого говорит Кай, это будет первая премьера в 2016 году. Второй станет полнометражный мультфильм «Зверополис».
Это первый полнометражный американский анимационный фильм, созданный совместно с китайской студией. Треть фильма была создана в Китае, а всё остальное — на студии «DreamWorks Animation» в США.
Премьерный показ фильма был назначен на 23 декабря 2015 года, но был перенесён на более поздний срок, чтобы избежать конкуренции с выходящим фильмом «Звёздные войны: Пробуждение силы» (2015).
Кая должен был озвучивать Мадс Миккельсен, но не смог ввиду плотного графика съёмок. В фильме этот персонаж говорит голосом Дж. К. Симмонса.
Компании «DreamWorks Animation» и «Paramount Pictures» прекратили сотрудничество в 2012 году, так что это будет первый фильм серии, распространением которого занимается «20 Century Fox».
Режиссёр Дженнифер Ю наделила Кая сверхъестественными способностями. Вот как она впоследствии объясняла своё решение: «Тай Лунг был драчуном, лорд Шэнь отличался умом. Что было делать с отрицательным героем третьего фильма? Только дать ему сверхъестественные силы». «Кай» по-японски означает «бог».
Отец По должен был говорить голосом Джейми Кэмпбелла Бауэра, однако на озвучивание утвердили Брайана Крэнстона. Необходимо отметить, что ни один из них не озвучивал отца По в конце фильма «Кунг-фу Панда 2» (2011). Там этот персонаж говорит голосом Фреда Татаскьора, который также озвучил мастера Шифу в компьютерных играх франшизы и в мультсериале «Кунг-фу Панда: Удивительные легенды» (2011).
[*]В эпизоде, где По обсуждает игру с пандами, четверых животных озвучили дети Анджелины Джоли — сыновья Пакс и Нокс и дочери Шайло и Захара (все носят фамилию Джоли-Питт).

Премьера: 16 января 2016 (28 января 2016)
Бюджет: $145 000 000
Кассовые сборы: $518 664 547





Качество: BDRip (by Ash61)
Контейнер: MKV
Формат 3D: Half OverUnder / Вертикальная анаморфная стереопара
Порядок ракурсов: левый ракурс первый


Видео: AVC / 1920х1080p / 23,976 fps / 12.7 Mbps
Аудио:
#1 - Русский / AC3 / 48 KHz / 5.1 ch / 384 Kbps (Дубляж - iTunes)
#2 - Украинский / AC3 / 48 KHz / 2 ch / 192 Kbps (Дубляж - iTunes)
#3 - Английский / AC3 / 48 KHz / 5.1 ch / 640 Kbps (Original - BD 3D)
Субтитры (SRT):
Вшитые (softsub):
#1 - Русские Форсированные (включены по умолчанию)
#2 - Русские Полные
#3 - Украинские Полные
#4 - English Full
Внешние (UTF-8):
#1 - Русские Форсированные (включены по умолчанию)
General
Unique ID : 183021940936562568396305387505699392260 (0x89B0BE600A55E07FB9E8A5FF17BE0B04)
Complete name : E:KungFuPanda3(2016)3D-halfOU(Ash61)iTunesKungFuPanda3(2016)3D-halfOU(Ash61)iTunes.mkv
Format : Matroska
Format version : Version 2
File size : 9.43 GiB
Duration : 1h 34mn
Overall bit rate : 14.2 Mbps
Movie name : Кунг-фу Панда 3 / Kung Fu Panda 3 (2016) в 3Д
Encoded date : UTC 2016-06-30 03:25:00
Writing application : mkvmerge v5.8.0 ('No Sleep / Pillow') built on Sep 2 2012 15:37:04
Writing library : libebml v1.2.3 + libmatroska v1.3.0
Video
ID : 1
Format : AVC
Format/Info : Advanced Video Codec
Format profile : High@L4.1
Format settings, CABAC : Yes
Format settings, ReFrames : 4 frames
Codec ID : V_MPEG4/ISO/AVC
Duration : 1h 34mn
Bit rate : 12.7 Mbps
Width : 1 920 pixels
Height : 1 080 pixels
Display aspect ratio : 16:9
Frame rate mode : Constant
Frame rate : 23.976 fps
Color space : YUV
Chroma subsampling : 4:2:0
Bit depth : 8 bits
Scan type : Progressive
Bits/(Pixel*Frame) : 0.256
Stream size : 8.43 GiB (89%)
Title : BDRip by Ash61
Writing library : x264 core 146 r2538 121396c
Encoding settings : cabac=1 / ref=4 / deblock=1:-3:-3 / analyse=0x3:0x113 / me=umh / subme=10 / psy=1 / psy_rd=1.00:0.00 / mixed_ref=1 / me_range=32 / chroma_me=1 / trellis=2 / 8x8dct=1 / cqm=0 / deadzone=21,11 / fast_pskip=1 / chroma_qp_offset=-2 / threads=12 / lookahead_threads=3 / sliced_threads=0 / nr=0 / decimate=1 / interlaced=0 / bluray_compat=0 / constrained_intra=0 / bframes=12 / b_pyramid=2 / b_adapt=2 / b_bias=0 / direct=3 / weightb=1 / open_gop=0 / weightp=2 / keyint=250 / keyint_min=23 / scenecut=40 / intra_refresh=0 / rc_lookahead=60 / rc=crf / mbtree=1 / crf=14.5 / qcomp=0.70 / qpmin=0 / qpmax=69 / qpstep=4 / vbv_maxrate=40000 / vbv_bufsize=30000 / crf_max=0.0 / nal_hrd=none / filler=0 / frame-packing=4 / ip_ratio=1.40 / aq=1:0.70
Language : English
Default : Yes
Forced : No
Audio #1
ID : 2
Format : AC-3
Format/Info : Audio Coding 3
Mode extension : CM (complete main)
Format settings, Endianness : Big
Codec ID : A_AC3
Duration : 1h 34mn
Bit rate mode : Constant
Bit rate : 384 Kbps
Channel(s) : 6 channels
Channel positions : Front: L C R, Side: L R, LFE
Sampling rate : 48.0 KHz
Bit depth : 16 bits
Compression mode : Lossy
Stream size : 261 MiB (3%)
Title : Дубляж - iTunes
Language : Russian
Default : Yes
Forced : No
Audio #2
ID : 3
Format : AC-3
Format/Info : Audio Coding 3
Mode extension : CM (complete main)
Format settings, Endianness : Big
Codec ID : A_AC3
Duration : 1h 34mn
Bit rate mode : Constant
Bit rate : 192 Kbps
Channel(s) : 2 channels
Channel positions : Front: L R
Sampling rate : 48.0 KHz
Bit depth : 16 bits
Compression mode : Lossy
Stream size : 130 MiB (1%)
Title : Дубляж - iTunes
Language : Ukrainian
Default : No
Forced : No
Audio #3
ID : 4
Format : AC-3
Format/Info : Audio Coding 3
Mode extension : CM (complete main)
Format settings, Endianness : Big
Codec ID : A_AC3
Duration : 1h 34mn
Bit rate mode : Constant
Bit rate : 640 Kbps
Channel(s) : 6 channels
Channel positions : Front: L C R, Side: L R, LFE
Sampling rate : 48.0 KHz
Bit depth : 16 bits
Compression mode : Lossy
Stream size : 434 MiB (5%)
Title : Original - BD 3D
Language : English
Default : No
Forced : No
Text #1
ID : 5
Format : UTF-8
Codec ID : S_TEXT/UTF8
Codec ID/Info : UTF-8 Plain Text
Title : Форсированные
Language : Russian
Default : Yes
Forced : No
Text #2
ID : 6
Format : UTF-8
Codec ID : S_TEXT/UTF8
Codec ID/Info : UTF-8 Plain Text
Title : Полные (iTunes)
Language : Russian
Default : No
Forced : No
Text #3
ID : 7
Format : UTF-8
Codec ID : S_TEXT/UTF8
Codec ID/Info : UTF-8 Plain Text
Title : Полные (iTunes)
Language : Ukrainian
Default : No
Forced : No
Text #4
ID : 8
Format : UTF-8
Codec ID : S_TEXT/UTF8
Codec ID/Info : UTF-8 Plain Text
Title : Full (iTunes)
Language : English
Default : No
Forced : No
Menu
00:00:00.000 : :1
00:05:21.780 : :2
00:08:10.240 : :3
00:10:00.016 : :4
00:12:26.037 : :5
00:15:24.215 : :6
00:19:08.230 : :7
00:24:39.395 : :8
00:30:17.607 : :9
00:33:53.990 : :10
00:36:18.259 : :11
00:39:55.643 : :12
00:43:32.652 : :13
00:46:45.845 : :14
00:51:41.181 : :15
00:56:04.611 : :16
00:59:48.168 : :17
01:02:11.311 : :18
01:05:26.965 : :19
01:10:16.838 : :20
01:14:06.901 : :21
01:17:06.580 : :22
01:20:34.788 : :23
01:24:21.181 : :24





















   Похожие торренты   Торрент   Размер 
В этой теме нет новых непрочитанных сообщений. Кунг-фу Панда 3 / Kung Fu Panda 3 (2016) BDRip 1080p от Ash61 | 3D-Video | halfOU | iTunes

234 | 34

9.77 ГБ

В этой теме нет новых непрочитанных сообщений. Кунг-фу Панда 2 / Kung Fu Panda 2 (2011) BDRip 1080p | 3D-Video | halfOU | Лицензия

12 | 2

8.33 ГБ

В этой теме нет новых непрочитанных сообщений. Кунг-фу Панда 3 / Kung Fu Panda 3 (2016) BDRip 1080p от ExKinoRay | iTunes

977 | 218

9.95 ГБ

В этой теме нет новых непрочитанных сообщений. Кунг-фу Панда 3 / Kung Fu Panda 3 (2016) BDRip 1080p | 3D-Video | halfSBS | Лицензия

190 | 34

11.36 ГБ

В этой теме нет новых непрочитанных сообщений. Кунг-фу Панда 3 / Kung Fu Panda 3 (2016) BDRip 1080p HEVC от qusi555 | iTunes

322 | 23

4.73 ГБ

В этой теме нет новых непрочитанных сообщений. Кунг-фу Панда 3 / Kung Fu Panda 3 (2016) Blu-Ray 1080p | 3D-Video | BD EUR | Лицензия

51 | 12

37.03 ГБ

В этой теме нет новых непрочитанных сообщений. Кунг-фу Панда 3 / Kung Fu Panda 3 (2016) BDRemux 1080p от ExKinoRay | iTunes

156 | 19

21.72 ГБ




Вы не можете начинать темы
Вы не можете отвечать на сообщения
Вы не можете редактировать свои сообщения
Вы не можете удалять свои сообщения
Вы не можете добавлять вложения

Перейти:  
Для Мосгорсуда, Роскомнадзора и рекламодателей: mosgorsud-torrent[собачка]yandex.ru
 Вход
ppkBB3cker v.2 © 2008-2014 @ PPK
[ Time : 1.133s | 17 Queries | GZIP : On ]

Торрент трекер RUTOR.IN, Не можете зайти на rutor.org? Какой новый адрес рутор? Какое зеркало рутор? Не работает rutor.org и зеркала? Тогда наш торрент специально для вас. Rutor.in неофициальное зеркало rutor. В случае если у Вас заблокирован rutor или вдруг Вы не можете на него зайти, то Вы без труда сможете скачать бесплатно и без рекламы последние новинки кино, игр, сериалов и прочего у нас, на Rutor.in. Не нужно использовать прокси, чтобы зайти на рутор, достаточно воспользоваться нашим ресурсом. Все новые фильмы, игры, сериалы, книги и музыка за 2013 и 2014 годы через торрент бесплатно. Скачивайте фильмы в хорошем качестве, игры для пк, xbox, playstation без регистрации. У нас вы найдете новые Зарубежные сериалы и Русские сериалы 2013, 2014, 2015 годов. Оставайтесь с нами, качайте любимые фильмы, игры, сериалы, книги и музыку.