img image001 image001 image001 image001 image001 image001 image001 image001 image001 image001 image001 image001 image001 image001 image001

Planets Sun Sun Sun
Статистика раздачи
Автор: PriZraK | Размер: 6.03 ГБ | Добавлен: 15 июл 2016
Раздают: 15    Качают: 8
Скачать торрент
Скачать торрент
Описание торрента

СообщениеДобавлено: 15 июл 2016 

Информация о фильме
Название: СуперКрылья. Джетт и его друзья
Оригинальное название: Super Wings. Jett and his friends
Год выхода: 2015
Страна: USA, South Korea, China
Студия: FunnyFlux Entertainment, Little Airplane Productions
Жанр: Мультсериал, познавательный, детский, приключения
Продолжительность: 40 х ~ 00:11:59
Перевод: Профессиональный дублированный

Режиссер: Гул Хоон Юнг

Роли озвучивали: Luca Padovan, Logan J Rush, Colin Critchley, Joseph Ricci, Jacob Schmitt, ...

О фильме:
Путешествуйте и изучайте страны мира вместе с персонажами мультсериала! Главный герой мультсериала — симпатичный самолетик Джетт. Он путешествует по миру, доставляя посылки детям. Иногда во время выполнения заданий Джетт сталкивается с трудностями, и на помощь ему приходят верные друзья, — команда бесстрашных трансформеров-самолётиков. В каждом эпизоде мультсериала герои отправляются в новую точку земного шара. Цель проекта — рассказать детям о культуре, традициях и языках различных стран и народов мира. Всего самолётики, а вместе с ними и маленькие телезрители, посетят 52 города в 45 государствах.

01. Правильный воздушный змей
02. Игра теней
03. Гонка на гондолах
04. Гавайское приключение
05. Щенки для принцессы
06. По сахаре на санках
07. Свет, камера, мотор!
08. Проблемы с пузырями
09. Гонка со временем
10. Звёзды Монголии
11. Невероятная самба
12. Мальчик из пирамиды
13. Боязнь сцены
14. Музыкальная горилла
15. Цирковое представление
16. Бумажные рейнджеры
17. Вояж к викингам
18. Арктический побег
19. Рецепт победы
20. Погоня за призраком
21. Звезда эстрады
22. Пернатые друзья
23. Друзья по рисованию
24. Фиеста! Фиеста!
25. День чистоты
26. Семейный час
27. Скоростной путь
28. Сырная гонка
29. Сбежавший Рекс
30. Отряд «Зебра»
31. Беседы с животными
32. Парад пингвинов
33. Невероятный Мориц
34. Поездка в космос
35. Папа-пожарный
36. В поисках адресата
37. Сбежавшие цвета
38. Пиратская добыча
39. Юные пилоты
40. Похититель игрушек



Доп. информация:
Семпл



Файл
Формат: AVI
Качество: WEBRip
Видео: 720x400 (1.80:1), 25 fps, XviD build 65 ~1599 kbps avg, 0.22 bit/pixel
Звук: 48 kHz, AC3 Dolby Digital, 2/0 (L,R) ch, ~192.00 kbps avg
Субтитры: нет

12. Мальчик из пирамиды. XviD-merci-.avi
Format : AVI
Format/Info : Audio Video Interleave
File size : 154 MiB
Duration : 11mn 59s
Overall bit rate : 1 802 Kbps
Writing application : VirtualDubMod 1.5.10.3 | www.virtualdub-fr.org || (build 2550/release)
Writing library : VirtualDubMod build 2550/release

Video
ID : 0
Format : MPEG-4 Visual
Format profile : Advanced Simple@L5
Format settings, BVOP : 1
Format settings, QPel : No
Format settings, GMC : No warppoints
Format settings, Matrix : Default (MPEG)
Codec ID : XVID
Codec ID/Hint : XviD
Duration : 11mn 59s
Bit rate : 1 600 Kbps
Width : 720 pixels
Height : 400 pixels
Display aspect ratio : 16:9
Frame rate : 25.000 fps
Color space : YUV
Chroma subsampling : 4:2:0
Bit depth : 8 bits
Scan type : Progressive
Compression mode : Lossy
Bits/(Pixel*Frame) : 0.222
Stream size : 137 MiB (89%)
Writing library : XviD 65

Audio
ID : 1
Format : AC-3
Format/Info : Audio Coding 3
Mode extension : CM (complete main)
Format settings, Endianness : Big
Codec ID : 2000
Duration : 11mn 59s
Bit rate mode : Constant
Bit rate : 192 Kbps
Channel(s) : 2 channels
Channel positions : Front: L R
Sampling rate : 48.0 KHz
Frame rate : 31.250 fps (1536 spf)
Compression mode : Lossy
Stream size : 16.5 MiB (11%)
Alignment : Split accross interleaves
Interleave, duration : 40 ms (1.00 video frame)
Interleave, preload duratio : 500 ms



Добавил эпизоды:
+ 17-18 - 16.05.2016
+ 19-22 - 25.05.2016
+ 23-25 - 31.05.2016
+ 26-28 - 06.06.2016
+ 29 - 10.06.2016
+ 30 - 14.06.2016
+ 31-32 - 20.06.2016
+ 33-35 - 27.06.2016
+ 36-40 - 07.07.2016


Релиз от:
Автор релиза:



   Похожие торренты   Торрент   Размер 
В этой теме нет новых непрочитанных сообщений. СуперКрылья. Джетт и его друзья / Super Wings. Jett and his friends [01-40 из 52] (2015) WEBRip 1080p от ExKinoRay | D

9 | 8

8.97 ГБ

В этой теме нет новых непрочитанных сообщений. СуперКрылья. Джетт и его друзья / Super Wings. Jett and his friends [01-40 из 52] (2015) WEBRip 720p от ExKinoRay | D

27 | 14

5.24 ГБ

В этой теме нет новых непрочитанных сообщений. СуперКрылья. Джетт и его друзья / Super Wings. Jett and his friends [01-14 из 52] (2015) WEB-DL 720p | D

6 | 1

2.25 ГБ

В этой теме нет новых непрочитанных сообщений. СуперКрылья. Джетт и его друзья / Super Wings. Jett and his friends [01-14 из 52] (2015) WEB-DL 1080p | D

41 | 4

4.79 ГБ

В этой теме нет новых непрочитанных сообщений. СуперКрылья. Джетт и его друзья / Super Wings. Jett and his friends [01-14 из 52] (2015) WEB-DL 720p | D

12 | 1

2.81 ГБ

В этой теме нет новых непрочитанных сообщений. Суперкрылья. Джетт и его друзья / Super Wings. Jett and his friends [S01] (2015) SATRip | D

1083 | 285

8.28 ГБ

В этой теме нет новых непрочитанных сообщений. СуперКрылья. Джетт и его друзья / Super Wings. Jett and his friends [01-14 из 52] (2015) WEB-DL 1080p | D

23 | 3

2.79 ГБ




Вы не можете начинать темы
Вы не можете отвечать на сообщения
Вы не можете редактировать свои сообщения
Вы не можете удалять свои сообщения
Вы не можете добавлять вложения

Перейти:  
Для Мосгорсуда, Роскомнадзора и рекламодателей: mosgorsud-torrent[собачка]yandex.ru
 Вход
ppkBB3cker v.2 © 2008-2014 @ PPK
[ Time : 0.018s | 15 Queries | GZIP : On ]

Торрент трекер RUTOR.IN, Не можете зайти на rutor.org? Какой новый адрес рутор? Какое зеркало рутор? Не работает rutor.org и зеркала? Тогда наш торрент специально для вас. Rutor.in неофициальное зеркало rutor. В случае если у Вас заблокирован rutor или вдруг Вы не можете на него зайти, то Вы без труда сможете скачать бесплатно и без рекламы последние новинки кино, игр, сериалов и прочего у нас, на Rutor.in. Не нужно использовать прокси, чтобы зайти на рутор, достаточно воспользоваться нашим ресурсом. Все новые фильмы, игры, сериалы, книги и музыка за 2013 и 2014 годы через торрент бесплатно. Скачивайте фильмы в хорошем качестве, игры для пк, xbox, playstation без регистрации. У нас вы найдете новые Зарубежные сериалы и Русские сериалы 2013, 2014, 2015 годов. Оставайтесь с нами, качайте любимые фильмы, игры, сериалы, книги и музыку.