img image001 image001 image001 image001 image001 image001 image001 image001 image001 image001 image001 image001 image001 image001 image001

Planets Sun Sun Sun
Статистика раздачи
Автор: PriZraK | Размер: 1.63 ГБ | Добавлен: 15 июл 2016
Раздают: 94    Качают: 20
Скачать торрент
Скачать торрент
Описание торрента

СообщениеДобавлено: 15 июл 2016 

Информация о фильме
Название: Жила-была царевна
Год выхода: 2013-2016
Жанр: Мультсериал, рисованный, детский, обучающий, познавательный
Страна: Россия, ТеремокТВ
Продолжительность: 6 х ~ 00:06:10, 10 х ~ 00:03:00
Перевод: не требуется
Режиссер: Артур Днепровский
Озвучивали: Алёна Созинова, Василий Шемякинский,

О фильме:
Жила-была царевна – новый многосерийный мультфильм про маленькую обаятельную и непоседливую девчушку. В каждой серии – поучительная история из ее жизни. Она хоть и царевна, желания у нее совершенно обыкновенные, как и у любого ребенка – побольше сладостей и поменьше нравоучений!

01. Не буду спать!
02. Хочу подарков!
03. Жадина!
04. Волшебные сказки
05. Замарашка
06. Про еду

Бонусы (песенки):
001. Новогодняя песенка
002. Новогодняя песенка (караоке)
003. Песенка про ночь
004. Песенка про ночь (караоке)
005. Песенка про подарки
006. Песенка про подарки (караоке)
007. Песенка про буквы
008. Песенка про буквы (караоке)
009. Песенка про жадину
010. Песенка замарашки


Доп. информация:
Официальный сайт / Семпл

Файл
Формат: MKV
Качество: WEB-DL 1080p
Видео: MPEG4-AVC, High@L4, 1920x1080 (16:9), 3 933 Kbps, 25.000 fps
Звук: AC3 2.0, 192 Kbps, 48.0 KHz
Субтитры: нет

01. Не буду спать! WEB-DL.1080p.-merci-.mkv
Format : Matroska
Format version : Version 2
File size : 195 MiB
Duration : 6mn 27s
Overall bit rate : 4 208 Kbps
Movie name : Жила-была Царевна / Россия / by -merci-
Encoded date : UTC 2016-02-02 05:41:03
Writing application : mkvmerge v5.8.0 ('No Sleep / Pillow') built on Sep 2 2012 15:37:04
Writing library : libebml v1.2.3 + libmatroska v1.3.0

Video
ID : 1
Format : AVC
Format/Info : Advanced Video Codec
Format profile : High@L4
Format settings, CABAC : Yes
Format settings, ReFrames : 2 frames
Codec ID : V_MPEG4/ISO/AVC
Duration : 6mn 27s
Bit rate : 3 933 Kbps
Width : 1 920 pixels
Height : 1 080 pixels
Display aspect ratio : 16:9
Frame rate mode : Constant
Frame rate : 25.000 fps
Color space : YUV
Chroma subsampling : 4:2:0
Bit depth : 8 bits
Scan type : Progressive
Bits/(Pixel*Frame) : 0.076
Stream size : 182 MiB (93%)
Title : 01. Не буду спать! WEB-DL.1080p.x264.-merci-
Language : Russian
Default : Yes
Forced : No
Color range : Limited
Color primaries : BT.709
Transfer characteristics : BT.709
Matrix coefficients : BT.709

Audio
ID : 2
Format : AC-3
Format/Info : Audio Coding 3
Mode extension : CM (complete main)
Format settings, Endianness : Big
Codec ID : A_AC3
Duration : 6mn 27s
Bit rate mode : Constant
Bit rate : 192 Kbps
Channel(s) : 2 channels
Channel positions : Front: L R
Sampling rate : 48.0 KHz
Compression mode : Lossy
Stream size : 8.88 MiB (5%)
Title : rus
Language : Russian
Default : Yes
Forced : No



Добавил эпизод:
+ 06 - 14.06.2016


Релиз от:
Автор релиза:



   Похожие торренты   Торрент   Размер 
В этой теме нет новых непрочитанных сообщений. Жила-была царевна [01x01-06 + 10 бонусов] (2013-2016) WEB-DLRip от ExKinoRay

70 | 11

631.2 МБ

В этой теме нет новых непрочитанных сообщений. Жила-была царевна [01x01-06 + 10 бонусов] (2013-2016) WEB-DL 720p от ExKinoRay

26 | 9

1.24 ГБ

В этой теме нет новых непрочитанных сообщений. Жила-была царевна (01x01-05 + Бонусы) (2013) WEB-DL 1080p от -merci-

579 | 18

1.37 ГБ

В этой теме нет новых непрочитанных сообщений. Жила-была царевна (01x01-05 + Бонусы) (2013) WEB-DL 720p от -merci-

260 | 14

1.04 ГБ

В этой теме нет новых непрочитанных сообщений. Жила-была царевна (01x01-05 + Бонусы) (2013) WEB-DLRip от -merci-

130 | 14

528.3 МБ

В этой теме нет новых непрочитанных сообщений. Жила-была... / C'era una volta (1967) DVDRip от ExKinoRay | P

78 | 12

1.46 ГБ

В этой теме нет новых непрочитанных сообщений. Жила-была одна баба (2011) BDRip от ExKinoRay

15 | 6

2.35 ГБ




Вы не можете начинать темы
Вы не можете отвечать на сообщения
Вы не можете редактировать свои сообщения
Вы не можете удалять свои сообщения
Вы не можете добавлять вложения

Перейти:  
Для Мосгорсуда, Роскомнадзора и рекламодателей: mosgorsud-torrent[собачка]yandex.ru
 Вход
ppkBB3cker v.2 © 2008-2014 @ PPK
[ Time : 0.069s | 14 Queries | GZIP : Off ]
CGP output time : 0.014s | 5 Queries | GZIP : Off

Торрент трекер RUTOR.IN, Не можете зайти на rutor.org? Какой новый адрес рутор? Какое зеркало рутор? Не работает rutor.org и зеркала? Тогда наш торрент специально для вас. Rutor.in неофициальное зеркало rutor. В случае если у Вас заблокирован rutor или вдруг Вы не можете на него зайти, то Вы без труда сможете скачать бесплатно и без рекламы последние новинки кино, игр, сериалов и прочего у нас, на Rutor.in. Не нужно использовать прокси, чтобы зайти на рутор, достаточно воспользоваться нашим ресурсом. Все новые фильмы, игры, сериалы, книги и музыка за 2013 и 2014 годы через торрент бесплатно. Скачивайте фильмы в хорошем качестве, игры для пк, xbox, playstation без регистрации. У нас вы найдете новые Зарубежные сериалы и Русские сериалы 2013, 2014, 2015 годов. Оставайтесь с нами, качайте любимые фильмы, игры, сериалы, книги и музыку.