img image001 image001 image001 image001 image001 image001 image001 image001 image001 image001 image001 image001 image001 image001 image001

Planets Sun Sun Sun
Статистика раздачи
Автор: PriZraK | Размер: 1.24 ГБ | Добавлен: 15 июл 2016
Раздают: 20    Качают: 7
Скачать торрент
Скачать торрент
Описание торрента

СообщениеДобавлено: 15 июл 2016 

Информация о фильме
Название: Жила-была царевна
Год выхода: 2013-2016
Жанр: Мультсериал, рисованный, детский, обучающий, познавательный
Страна: Россия, ТеремокТВ
Продолжительность: 6 х ~ 00:06:10, 10 х ~ 00:03:00
Перевод: не требуется
Режиссер: Артур Днепровский
Озвучивали: Алёна Созинова, Василий Шемякинский,

О фильме:
Жила-была царевна – новый многосерийный мультфильм про маленькую обаятельную и непоседливую девчушку. В каждой серии – поучительная история из ее жизни. Она хоть и царевна, желания у нее совершенно обыкновенные, как и у любого ребенка – побольше сладостей и поменьше нравоучений!

01. Не буду спать!
02. Хочу подарков!
03. Жадина!
04. Волшебные сказки
05. Замарашка
06. Про еду

Бонусы (песенки):
001. Новогодняя песенка
002. Новогодняя песенка (караоке)
003. Песенка про ночь
004. Песенка про ночь (караоке)
005. Песенка про подарки
006. Песенка про подарки (караоке)
007. Песенка про буквы
008. Песенка про буквы (караоке)
009. Песенка про жадину
010. Песенка замарашки


Доп. информация:
Официальный сайт / Семпл

Файл
Качество: WEB-DL 720p
Формат: MKV
Видео: MPEG4-AVC, High@L3.1, 1280x720 (16:9), 2 946 Kbps, 25.000 fps
Звук: AC3 2.0, 192 Kbps, 48.0 KHz
Субтитры: нет

02. Хочу подарков! WEB-DL.720p.-merci-.mkv
Format : Matroska
Format version : Version 2
File size : 146 MiB
Duration : 6mn 22s
Overall bit rate : 3 202 Kbps
Movie name : Жила-была Царевна / Россия / by -merci-
Encoded date : UTC 2016-02-02 03:18:44
Writing application : mkvmerge v5.8.0 ('No Sleep / Pillow') built on Sep 2 2012 15:37:04
Writing library : libebml v1.2.3 + libmatroska v1.3.0

Video
ID : 1
Format : AVC
Format/Info : Advanced Video Codec
Format profile : High@L3.1
Format settings, CABAC : Yes
Format settings, ReFrames : 2 frames
Codec ID : V_MPEG4/ISO/AVC
Duration : 6mn 22s
Bit rate : 2 946 Kbps
Width : 1 280 pixels
Height : 720 pixels
Display aspect ratio : 16:9
Frame rate mode : Constant
Frame rate : 25.000 fps
Color space : YUV
Chroma subsampling : 4:2:0
Bit depth : 8 bits
Scan type : Progressive
Bits/(Pixel*Frame) : 0.128
Stream size : 134 MiB (92%)
Title : 02. Хочу подарков! WEB-DL.720p.x264.-merci-
Language : Russian
Default : Yes
Forced : No
Color range : Limited
Color primaries : BT.709
Transfer characteristics : BT.709
Matrix coefficients : BT.709

Audio
ID : 2
Format : AC-3
Format/Info : Audio Coding 3
Mode extension : CM (complete main)
Format settings, Endianness : Big
Codec ID : A_AC3
Duration : 6mn 22s
Bit rate mode : Constant
Bit rate : 192 Kbps
Channel(s) : 2 channels
Channel positions : Front: L R
Sampling rate : 48.0 KHz
Compression mode : Lossy
Stream size : 8.75 MiB (6%)
Title : rus
Language : Russian
Default : Yes
Forced : No





Добавил эпизод:
+ 06 - 14.06.2016


Релиз от:
Автор релиза:



   Похожие торренты   Торрент   Размер 
В этой теме нет новых непрочитанных сообщений. Жила-была царевна [01x01-08 + 10 бонусов] (2013-2016) WEB-DL 720p от ExKinoRay

6 | 0

1.56 ГБ

В этой теме нет новых непрочитанных сообщений. Жила-была царевна [01x01-08 + 10 бонусов] (2013-2016) WEB-DLRip от ExKinoRay

23 | 0

794.05 МБ

В этой теме нет новых непрочитанных сообщений. Жила-была царевна [01x01-06 + 10 бонусов] (2013-2016) WEB-DL 1080p от ExKinoRay

64 | 20

1.63 ГБ

В этой теме нет новых непрочитанных сообщений. Жила-была царевна [01x01-08 + 10 бонусов] (2013-2016) WEB-DL 1080p от ExKinoRay

4 | 0

2.05 ГБ

В этой теме нет новых непрочитанных сообщений. Жила-была царевна [01x01-06 + 10 бонусов] (2013-2016) WEB-DLRip от ExKinoRay

43 | 9

631.2 МБ

В этой теме нет новых непрочитанных сообщений. Жила-была царевна (01x01-05 + Бонусы) (2013) WEB-DL 720p от -merci-

260 | 14

1.04 ГБ

В этой теме нет новых непрочитанных сообщений. Жила-была царевна (01x01-05 + Бонусы) (2013) WEB-DLRip от -merci-

130 | 14

528.3 МБ




Вы не можете начинать темы
Вы не можете отвечать на сообщения
Вы не можете редактировать свои сообщения
Вы не можете удалять свои сообщения
Вы не можете добавлять вложения

Перейти:  
Для Мосгорсуда, Роскомнадзора и рекламодателей: mosgorsud-torrent[собачка]yandex.ru
 Вход
ppkBB3cker v.2 © 2008-2014 @ PPK
[ Time : 0.038s | 16 Queries | GZIP : Off ]

cron